<?xml version="1.0" standalone="no"?>
<!DOCTYPE svg PUBLIC "-//W3C//DTD SVG 1.1//EN" "http://www.w3.org/Graphics/SVG/1.1/DTD/svg11.dtd" >
<svg xmlns="http://www.w3.org/2000/svg" xmlns:xlink="http://www.w3.org/1999/xlink" version="1.1">
<metadata>
Created by FontForge 20201107 at Fri Sep  7 16:57:26 2018
 By
Copyright 2018 The Sarabun Project Authors (https://github.com/cadsondemak/Sarabun)
</metadata>
<defs>
<font id="Sarabun-Light" horiz-adv-x="0" >
  <font-face
    font-family="Sarabun Light"
    font-weight="300"
    font-stretch="normal"
    units-per-em="1000"
    panose-1="0 0 4 0 0 0 0 0 0 0"
    ascent="800"
    descent="-200"
    x-height="500"
    cap-height="700"
    bbox="-643 -520 1200 1260"
    underline-thickness="50"
    underline-position="-100"
    unicode-range="U+000D-FB02"
  />
<missing-glyph horiz-adv-x="700"
d="M100 750h500v-750h-500v750zM556 41v668h-412v-668h412z" />
    <glyph glyph-name="fi" unicode="fi" horiz-adv-x="545"
d="M91 447h-83v53h83v66q0 70 40 110.5t109 40.5q29 0 54.5 -8.5t40.5 -23.5l-26 -44q-24 21 -65 21q-39 0 -61.5 -25.5t-22.5 -71.5v-65h145v-53h-145v-447h-69v447zM392.5 611q-14.5 14 -14.5 37q0 24 14.5 38t38.5 14t38.5 -14t14.5 -38q0 -23 -14.5 -37t-38.5 -14
t-38.5 14zM396 500h70v-500h-70v500z" />
    <glyph glyph-name="fl" unicode="fl" horiz-adv-x="600"
d="M91 447h-83v53h83v66q0 70 40 110.5t109 40.5q29 0 54.5 -8.5t40.5 -23.5l-26 -44q-24 21 -65 21q-39 0 -61.5 -25.5t-22.5 -71.5v-65h145v-53h-145v-447h-69v447zM388 115v627h70v-626q0 -40 11.5 -56t40.5 -16q20 0 48 11l12 -43q-36 -22 -81 -22q-101 0 -101 125z" />
    <glyph glyph-name="uni0E240E45" unicode="&#xe24;&#xe45;" horiz-adv-x="870"
d="M748 544q45 -42 45 -118v-676h-69v676q0 49 -29 76t-81 27q-48 0 -79.5 -30t-38.5 -85q2 -18 2 -28v-636h-69v629q0 69 -41 109.5t-111 40.5q-56 0 -100 -27.5t-60 -72.5q38 -4 70 -18t48 -32v-14q-39 -10 -61.5 -38t-22.5 -66v-91q15 9 38 9q41 0 67.5 -26t26.5 -68
t-27.5 -68.5t-70.5 -26.5q-46 0 -75 28.5t-29 73.5v167q0 37 20 68t54 45q-40 15 -108 17q8 90 72.5 143.5t163.5 53.5q60 0 106.5 -22t74.5 -62q24 40 64.5 62t91.5 22q83 0 128 -42zM152.5 118.5q-13.5 -13.5 -13.5 -33.5q0 -22 13.5 -35t34.5 -13t34.5 13t13.5 35
q0 20 -13.5 33.5t-34.5 13.5t-34.5 -13.5z" />
    <glyph glyph-name="uni0E260E45" unicode="&#xe26;&#xe45;" horiz-adv-x="903"
d="M781 544q45 -42 45 -118v-676h-69v676q0 49 -29 76t-81 27q-48 0 -79 -30t-39 -84q2 -18 2 -29v-636h-69v629q0 70 -39.5 110t-107.5 40q-57 0 -98 -27t-56 -73q38 -4 70.5 -17.5t48.5 -32.5v-13q-36 -10 -54 -36.5t-18 -62.5q0 -24 11 -81q12 -66 12 -93
q0 -46 -28.5 -74.5t-74.5 -28.5q-44 0 -71.5 26.5t-27.5 68.5t27 69t69 27q19 0 32 -6q-6 23 -10 48.5t-4 41.5q0 35 16 64.5t43 42.5q-18 7 -48 11.5t-63 5.5q5 57 33.5 102t79 70t116.5 25q60 0 106 -21.5t72 -60.5q24 39 64 60.5t91 21.5q83 0 128 -42zM160 51
q14 14 14 34q0 21 -14 34.5t-34 13.5q-21 0 -34.5 -13.5t-13.5 -34.5q0 -20 13.5 -34t34.5 -14q20 0 34 14z" />
    <glyph glyph-name=".notdef" horiz-adv-x="700"
d="M100 750h500v-750h-500v750zM556 41v668h-412v-668h412z" />
    <glyph glyph-name=".null"
 />
    <glyph glyph-name="nonmarkingreturn" unicode="&#xd;" horiz-adv-x="247"
 />
    <glyph glyph-name="NULL"
 />
    <glyph glyph-name="NULL"
 />
    <glyph glyph-name="space" unicode=" " horiz-adv-x="247"
 />
    <glyph glyph-name="exclam" unicode="!" horiz-adv-x="230"
d="M73 700h84l-11 -516h-62zM72 6.5q-17 16.5 -17 41.5t17 41.5t43 16.5t43 -16.5t17 -41.5t-17 -41.5t-43 -16.5t-43 16.5z" />
    <glyph glyph-name="quotedbl" unicode="&#x22;" horiz-adv-x="336"
d="M55 710h77l-10 -242h-57zM204 710h77l-10 -242h-57z" />
    <glyph glyph-name="numbersign" unicode="#" horiz-adv-x="679"
d="M532 437l-21 -175h91v-57h-99l-25 -205h-66l25 205h-224l-25 -205h-66l25 205h-90v57h98l21 175h-99v58h107l25 205h66l-25 -205h224l25 205h66l-25 -205h82v-58h-90zM466 437h-224l-21 -175h224z" />
    <glyph glyph-name="dollar" unicode="$" horiz-adv-x="526"
d="M431 53.5q-48 -49.5 -129 -60.5v-70h-65v68q-59 5 -110.5 32t-82.5 71l46 46q31 -39 78.5 -63.5t93.5 -24.5q64 0 103.5 33t39.5 87q0 51 -32 87t-116 77q-73 36 -114.5 66.5t-59 62.5t-17.5 73q0 71 46 116.5t125 53.5v61h65v-61q55 -7 99.5 -34.5t66.5 -69.5l-50 -35
q-23 36 -63 57.5t-85 21.5q-59 0 -94.5 -29.5t-35.5 -78.5q0 -29 13 -49.5t47.5 -43t105.5 -58.5q93 -46 133 -95t40 -116q0 -75 -48 -124.5z" />
    <glyph glyph-name="percent" unicode="%" horiz-adv-x="880"
d="M90 372q-41 53 -41 142q0 90 40.5 143t110.5 53q69 0 110 -53.5t41 -142.5t-41 -142t-110 -53t-110 53zM615 700h74l-429 -713h-73zM265 410.5q24 38.5 24 103.5t-24 103.5t-65 38.5q-42 0 -66 -38.5t-24 -103.5t24 -103.5t66 -38.5q41 0 65 38.5zM570 43.5
q-41 53.5 -41 142.5t41 142t110 53t110 -53t41 -142t-41 -142.5t-110 -53.5t-110 53.5zM745 82.5q24 38.5 24 103.5t-24 103.5t-65 38.5t-65 -38.5t-24 -103.5t24 -103.5t65 -38.5t65 38.5z" />
    <glyph glyph-name="ampersand" unicode="&#x26;" horiz-adv-x="657"
d="M585 -10q-28 24 -90 80q-44 -39 -99.5 -59.5t-118.5 -20.5q-72 0 -126 25.5t-83 71.5t-29 108t39 116t107 85q-60 90 -60 165q0 66 45 107.5t118 41.5q71 0 115 -39.5t44 -104.5q0 -55 -41.5 -104.5t-120.5 -91.5q12 -15 13 -16q75 -90 192 -196q44 64 59 154h67
q-14 -113 -78 -197l89 -76zM220 627q-26 -25 -26 -67q0 -61 60 -148q60 33 92 73.5t32 78.5q0 40 -24.5 64t-63.5 24q-44 0 -70 -25zM449 112q-140 130 -206 208q-9 10 -25 30q-49 -27 -76.5 -67.5t-27.5 -86.5q0 -66 46.5 -105.5t124.5 -39.5q94 0 164 61z" />
    <glyph glyph-name="quotesingle" unicode="'" horiz-adv-x="188"
d="M55 710h77l-10 -242h-57z" />
    <glyph glyph-name="parenleft" unicode="(" horiz-adv-x="305"
d="M80 109.5q-40 107.5 -40 234.5t40 234.5t111 171.5h76q-72 -58 -113.5 -166.5t-41.5 -239.5t41.5 -239.5t113.5 -166.5h-76q-71 64 -111 171.5z" />
    <glyph glyph-name="parenright" unicode=")" horiz-adv-x="305"
d="M151.5 104.5q41.5 108.5 41.5 239.5t-41.5 239.5t-112.5 166.5h75q71 -64 111 -171.5t40 -234.5t-40 -234.5t-111 -171.5h-75q71 58 112.5 166.5z" />
    <glyph glyph-name="asterisk" unicode="*" horiz-adv-x="448"
d="M93 394l94 122l-150 -10v63l150 -10l-94 122l63 36l68 -134l69 134l62 -36l-93 -122l150 10v-63l-150 10l93 -122l-62 -37l-69 134l-68 -134z" />
    <glyph glyph-name="plus" unicode="+" horiz-adv-x="603"
d="M269 234h-216v56h216v234h65v-234h217v-56h-217v-234h-65v234z" />
    <glyph glyph-name="comma" unicode="," horiz-adv-x="237"
d="M166.5 91.5q17.5 -21.5 17.5 -59.5q0 -50 -26.5 -106t-69.5 -94l-29 33q24 25 41.5 59t22.5 69q-4 -1 -13 -1q-22 0 -36.5 16.5t-14.5 41.5q0 28 17 45.5t45 17.5t45.5 -21.5z" />
    <glyph glyph-name="hyphen" unicode="-" horiz-adv-x="340"
d="M37 293h266v-54h-266v54z" />
    <glyph glyph-name="period" unicode="." horiz-adv-x="237"
d="M78.5 6.5q-15.5 16.5 -15.5 42.5t15.5 42t40.5 16t40 -16t15 -42t-15 -42.5t-40 -16.5t-40.5 16.5z" />
    <glyph glyph-name="slash" unicode="/" horiz-adv-x="396"
d="M355 725h66l-380 -768h-66z" />
    <glyph glyph-name="zero" unicode="0" horiz-adv-x="545"
d="M101.5 81q-59.5 91 -59.5 269t59.5 269t171.5 91q111 0 170.5 -91t59.5 -269t-59.5 -269t-170.5 -91q-112 0 -171.5 91zM388 125q41 77 41 225q0 149 -40.5 225.5t-115.5 76.5t-116 -76.5t-41 -225.5t41 -225.5t116 -76.5q74 0 115 77z" />
    <glyph glyph-name="one" unicode="1" horiz-adv-x="545"
d="M133 61h122v550l-140 -83v69l168 103h46v-639h122v-61h-318v61z" />
    <glyph glyph-name="two" unicode="2" horiz-adv-x="545"
d="M67 69q73 54 146.5 129t123.5 159t50 159q0 60 -35 96t-95 36q-51 0 -97 -24.5t-71 -62.5l-40 45q31 49 86.5 76.5t122.5 27.5q94 0 149 -52t55 -139q0 -113 -88.5 -233t-210.5 -225h333v-61h-429v69z" />
    <glyph glyph-name="three" unicode="3" horiz-adv-x="545"
d="M136 17q-57 27 -85 74l38 45q25 -39 72.5 -61.5t101.5 -22.5q71 0 114 38.5t43 99.5q0 68 -54 106.5t-147 38.5h-28v63h27q80 0 128.5 40t48.5 102q0 51 -33.5 79.5t-92.5 28.5q-54 0 -99.5 -22.5t-71.5 -61.5l-38 45q30 47 87 74t126 27q89 0 142.5 -44.5t53.5 -117.5
q0 -62 -38.5 -110.5t-103.5 -68.5q80 -15 124 -62t44 -119q0 -58 -28.5 -103t-80.5 -70t-121 -25q-72 0 -129 27z" />
    <glyph glyph-name="four" unicode="4" horiz-adv-x="545"
d="M358 124h-329v64l309 512h94v-514h80v-62h-80v-124h-74v124zM358 186v431l-260 -431h260z" />
    <glyph glyph-name="five" unicode="5" horiz-adv-x="545"
d="M134 17q-57 27 -86 74l38 48q26 -41 71.5 -64t100.5 -23q74 0 117.5 47t43.5 128q0 78 -39.5 123.5t-107.5 45.5q-43 0 -80 -18.5t-57 -50.5h-62l32 373h367v-62h-299l-20 -225q22 20 59.5 32t76.5 12q95 0 151.5 -61.5t56.5 -165.5q0 -110 -64 -175t-173 -65
q-69 0 -126 27z" />
    <glyph glyph-name="six" unicode="6" horiz-adv-x="545"
d="M156 22q-52 32 -80 91.5t-28 138.5q0 109 51.5 208t141 166t196.5 85l7 -58q-105 -26 -186.5 -100t-110.5 -171q18 28 54.5 45t84.5 17q66 0 114 -30t73 -81.5t25 -115.5q0 -65 -26 -116.5t-76 -81t-117 -29.5q-71 0 -123 32zM384.5 97.5q40.5 45.5 40.5 120.5
q0 74 -40.5 119t-107.5 45t-108.5 -45t-41.5 -119q0 -75 41 -120.5t109 -45.5q67 0 107.5 45.5z" />
    <glyph glyph-name="seven" unicode="7" horiz-adv-x="545"
d="M211.5 222q17.5 101 64 206.5t132.5 209.5h-352v62h434v-67q-223 -246 -223 -633h-76q3 121 20.5 222z" />
    <glyph glyph-name="eight" unicode="8" horiz-adv-x="545"
d="M103 43q-61 53 -61 147q0 63 30.5 111.5t90.5 72.5q-45 19 -71 62.5t-26 96.5q0 81 56 129t151 48q94 0 150 -48t56 -129q0 -53 -26 -97t-71 -62q60 -24 90.5 -72.5t30.5 -111.5q0 -94 -61 -147t-169 -53q-109 0 -170 53zM369.5 435.5q35.5 33.5 35.5 89.5q0 57 -35 90
t-97 33t-97.5 -33t-35.5 -90q0 -56 36 -89.5t97 -33.5t96.5 33.5zM387.5 91.5q41.5 39.5 41.5 107.5t-41.5 106.5t-114.5 38.5q-74 0 -115.5 -38.5t-41.5 -106.5t42 -107.5t115 -39.5t114.5 39.5z" />
    <glyph glyph-name="nine" unicode="9" horiz-adv-x="545"
d="M102 47q73 17 136 56.5t106 95t57 117.5q-19 -26 -56 -43t-82 -17q-65 0 -113.5 29.5t-75 81t-26.5 116.5q0 66 27 117.5t76.5 80.5t115.5 29q108 0 169.5 -72.5t61.5 -194.5q0 -114 -49.5 -211t-137.5 -161t-200 -82zM377 362q42 46 42 120q0 75 -41 120.5t-109 45.5
q-67 0 -107.5 -45.5t-40.5 -120.5t40 -120.5t106 -45.5q68 0 110 46z" />
    <glyph glyph-name="colon" unicode=":" horiz-adv-x="237"
d="M78.5 371q-15.5 16 -15.5 42t15.5 42t40.5 16q24 0 39.5 -16.5t15.5 -41.5t-15.5 -41.5t-39.5 -16.5q-25 0 -40.5 16zM78.5 4.5q-15.5 16.5 -15.5 42.5q0 25 15.5 41.5t40.5 16.5q24 0 39.5 -16.5t15.5 -41.5q0 -26 -15.5 -42.5t-39.5 -16.5q-25 0 -40.5 16.5z" />
    <glyph glyph-name="semicolon" unicode=";" horiz-adv-x="237"
d="M78.5 371q-15.5 16 -15.5 42t15.5 42t40.5 16q24 0 39.5 -16.5t15.5 -41.5t-15.5 -41.5t-39.5 -16.5q-25 0 -40.5 16zM169 91.5q18 -21.5 18 -59.5q0 -49 -26 -105t-70 -95l-29 33q24 26 41 59.5t23 68.5q-4 -1 -13 -1q-22 0 -36.5 16.5t-14.5 41.5q0 28 17 45.5t44 17.5
q28 0 46 -21.5z" />
    <glyph glyph-name="less" unicode="&#x3c;" horiz-adv-x="603"
d="M62 259v40l479 260v-64l-394 -216l394 -215v-64z" />
    <glyph glyph-name="equal" unicode="=" horiz-adv-x="603"
d="M71 392h461v-58h-461v58zM71 191h461v-58h-461v58z" />
    <glyph glyph-name="greater" unicode="&#x3e;" horiz-adv-x="603"
d="M62 64l394 215l-394 216v64l479 -260v-40l-479 -259v64z" />
    <glyph glyph-name="question" unicode="?" horiz-adv-x="448"
d="M183 207q0 44 20.5 82t60.5 90q37 48 55.5 81t18.5 69q0 60 -31.5 91t-91.5 31q-43 0 -79 -22t-58 -60l-41 45q28 45 76.5 70t108.5 25q91 0 140 -46.5t49 -129.5q0 -43 -20.5 -79t-60.5 -85q-41 -50 -61.5 -86t-20.5 -80q0 -28 4 -45h-63q-6 21 -6 49zM182 5.5
q-16 15.5 -16 41.5q0 25 16 40.5t42 15.5q25 0 41 -15.5t16 -40.5t-15.5 -41t-41.5 -16t-42 15.5z" />
    <glyph glyph-name="at" unicode="@" horiz-adv-x="791"
d="M196 -101q-77 44 -119.5 123.5t-42.5 181.5q0 113 48.5 201.5t135 138t197.5 49.5q98 0 175 -41.5t120 -115.5t43 -168q0 -71 -23.5 -127t-65.5 -89.5t-96 -36.5l-40 -2l-18 67q-26 -34 -68 -55t-82 -21q-64 0 -105 38.5t-41 99.5q0 64 49 104.5t127 40.5h109v26
q0 44 -28.5 72t-74.5 28q-39 0 -75 -19t-56 -49l-33 35q25 35 70.5 57.5t94.5 22.5q71 0 114.5 -44t43.5 -117v-170q0 -32 9 -64q59 5 95.5 60t36.5 138q0 81 -35.5 143.5t-99.5 97.5t-146 35q-93 0 -166 -42.5t-113.5 -118.5t-40.5 -173q0 -86 36 -153t101 -104.5
t148 -37.5q46 0 92 11.5t73 28.5l23 -45q-33 -22 -87.5 -36t-108.5 -14q-99 0 -176 44zM429 67.5q31 16.5 50.5 41.5t19.5 46v87h-103q-56 0 -90.5 -27t-34.5 -73q0 -44 28.5 -67.5t66.5 -23.5q32 0 63 16.5z" />
    <glyph glyph-name="A" unicode="A" horiz-adv-x="581"
d="M431 164h-281l-52 -164h-80l237 700h71l237 -700h-80zM412 225l-121 385l-122 -385h243z" />
    <glyph glyph-name="B" unicode="B" horiz-adv-x="584"
d="M86 700h182q117 0 175 -41t58 -125q0 -123 -112 -159v-2q73 -18 106.5 -59.5t33.5 -115.5q0 -101 -57.5 -149.5t-177.5 -48.5h-208v700zM283 399q144 0 144 131q0 56 -38.5 82.5t-119.5 26.5h-109v-240h123zM302 61q79 0 117 33.5t38 103.5q0 76 -47 109.5t-153 33.5h-97
v-280h142z" />
    <glyph glyph-name="C" unicode="C" horiz-adv-x="576"
d="M175.5 33.5q-66.5 43.5 -102.5 124.5t-36 192q0 110 36.5 191t104.5 125t159 44q69 0 125 -27.5t85 -76.5l-41 -44q-56 86 -167 86q-108 0 -167.5 -78t-59.5 -220q0 -140 58.5 -219t162.5 -79q120 0 173 86l41 -44q-28 -49 -85 -76.5t-130 -27.5q-90 0 -156.5 43.5z" />
    <glyph glyph-name="D" unicode="D" horiz-adv-x="618"
d="M86 700h215q137 0 203 -82.5t66 -253.5q0 -129 -30.5 -209t-95.5 -117.5t-171 -37.5h-187v700zM289 62q108 0 158 72.5t50 229.5q0 143 -47 208.5t-151 65.5h-139v-576h129z" />
    <glyph glyph-name="E" unicode="E" horiz-adv-x="546"
d="M86 700h404v-62h-330v-238h295v-63h-295v-275h330v-62h-404v700z" />
    <glyph glyph-name="F" unicode="F" horiz-adv-x="543"
d="M86 700h409v-62h-335v-267h313v-62h-313v-309h-74v700z" />
    <glyph glyph-name="G" unicode="G" horiz-adv-x="633"
d="M567 356v-356h-46l-16 48q-33 -28 -78.5 -43t-97.5 -15q-89 0 -155 43.5t-101.5 125t-35.5 191.5q0 109 37 190.5t104.5 125.5t158.5 44q74 0 132 -27.5t86 -76.5l-40 -43q-26 41 -72 63t-106 22q-106 0 -165.5 -79t-59.5 -219q0 -142 59 -221t164 -79q48 0 89.5 15.5
t69.5 43.5v190h-172v57h245z" />
    <glyph glyph-name="H" unicode="H" horiz-adv-x="674"
d="M85 700h74v-316h356v316h74v-700h-74v322h-356v-322h-74v700z" />
    <glyph glyph-name="I" unicode="I" horiz-adv-x="284"
d="M105 700h74v-700h-74v700z" />
    <glyph glyph-name="J" unicode="J" horiz-adv-x="423"
d="M69.5 2.5q-37.5 12.5 -61.5 32.5l28 55q21 -17 50 -27.5t58 -10.5q63 0 91.5 43.5t28.5 138.5v466h74v-477q0 -119 -46.5 -176t-145.5 -57q-39 0 -76.5 12.5z" />
    <glyph glyph-name="K" unicode="K" horiz-adv-x="588"
d="M499 0l-236 363l-104 -123v-240h-74v700h74v-361l304 361h85l-237 -280l267 -420h-79z" />
    <glyph glyph-name="L" unicode="L" horiz-adv-x="537"
d="M85 700h74v-638h341v-62h-415v700z" />
    <glyph glyph-name="M" unicode="M" horiz-adv-x="793"
d="M707 700v-700h-72v575l-214 -575h-50l-213 575v-575h-72v700h91l219 -603l220 603h91z" />
    <glyph glyph-name="N" unicode="N" horiz-adv-x="677"
d="M591 700v-700h-75l-357 588v-588h-74v700h82l351 -581v581h73z" />
    <glyph glyph-name="O" unicode="O" horiz-adv-x="655"
d="M174 34q-66 44 -101.5 125t-35.5 191t35.5 191t101.5 125t154 44t153.5 -44t101 -125t35.5 -191t-35.5 -191t-101 -125t-153.5 -44t-154 44zM443 87.5q49 36.5 75 104t26 158.5t-26 158.5t-75 104t-115 36.5t-115 -36.5t-75.5 -104t-26.5 -158.5t26.5 -158.5t75.5 -104
t115 -36.5t115 36.5z" />
    <glyph glyph-name="P" unicode="P" horiz-adv-x="568"
d="M86 700h197q112 0 170.5 -53t58.5 -155q0 -108 -60.5 -166t-173.5 -58h-118v-268h-74v700zM290 331q72 0 111 41t39 117q0 74 -40 111.5t-118 37.5h-122v-307h130z" />
    <glyph glyph-name="Q" unicode="Q" horiz-adv-x="655"
d="M560 115.5q-58 -92.5 -161 -117.5q76 -32 195 -49l-13 -53q-77 11 -150.5 36.5t-135.5 59.5q-79 8 -137 53.5t-89.5 123.5t-31.5 181q0 110 35.5 191t101.5 125t154 44t153.5 -44t101 -125t35.5 -191q0 -142 -58 -234.5zM137.5 191.5q26.5 -67.5 75.5 -104t115 -36.5
t115 36.5t75 104t26 158.5t-26 158.5t-75 104t-115 36.5t-115 -36.5t-75.5 -104t-26.5 -158.5t26.5 -158.5z" />
    <glyph glyph-name="R" unicode="R" horiz-adv-x="577"
d="M86 700h206q111 0 165.5 -45.5t54.5 -138.5q0 -70 -37 -118.5t-102 -64.5v-2q22 -13 36 -29.5t24 -41.5l105 -260h-80l-90 230q-19 47 -45.5 64.5t-78.5 17.5h-84v-312h-74v700zM289 373q77 0 114.5 35t37.5 106q0 63 -38.5 93.5t-117.5 30.5h-125v-265h129z" />
    <glyph glyph-name="S" unicode="S" horiz-adv-x="525"
d="M136.5 18q-57.5 28 -92.5 76l46 46q31 -39 78.5 -63.5t93.5 -24.5q64 0 103.5 33t39.5 87q0 51 -32 87t-116 77q-73 36 -114.5 66.5t-59 62.5t-17.5 73q0 79 55.5 125.5t148.5 46.5q64 0 118 -29t80 -77l-50 -35q-23 36 -63 57.5t-85 21.5q-59 0 -94.5 -29.5t-35.5 -78.5
q0 -29 13 -49.5t47.5 -43t105.5 -58.5q93 -46 133 -95t40 -116q0 -56 -27.5 -99t-77.5 -66t-115 -23t-122.5 28z" />
    <glyph glyph-name="T" unicode="T" horiz-adv-x="547"
d="M237 640h-219v60h510v-60h-217v-640h-74v640z" />
    <glyph glyph-name="U" unicode="U" horiz-adv-x="656"
d="M84 275v425h74v-423q0 -225 171 -225q170 0 170 225v423h74v-425q0 -141 -61.5 -213t-182.5 -72q-245 0 -245 285z" />
    <glyph glyph-name="V" unicode="V" horiz-adv-x="587"
d="M569 700l-238 -700h-75l-238 700h80l196 -606l195 606h80z" />
    <glyph glyph-name="W" unicode="W" horiz-adv-x="817"
d="M788 700l-144 -700h-76l-159 602l-160 -602h-76l-145 700h80l107 -592l154 592h78l154 -592l107 592h80z" />
    <glyph glyph-name="X" unicode="X" horiz-adv-x="589"
d="M250 359l-202 341h86l161 -288l160 288h87l-203 -341l213 -359h-85l-172 300l-172 -300h-86z" />
    <glyph glyph-name="Y" unicode="Y" horiz-adv-x="554"
d="M240 278l-221 422h82l176 -353l175 353h83l-220 -422v-278h-75v278z" />
    <glyph glyph-name="Z" unicode="Z" horiz-adv-x="559"
d="M37 44l382 594h-352v62h442v-46l-381 -592h394v-62h-485v44z" />
    <glyph glyph-name="bracketleft" unicode="[" horiz-adv-x="299"
d="M65 700h211v-54h-139v-705h139v-54h-211v813z" />
    <glyph glyph-name="backslash" unicode="\" horiz-adv-x="381"
d="M-25 725h66l380 -768h-66z" />
    <glyph glyph-name="bracketright" unicode="]" horiz-adv-x="299"
d="M23 -59h139v705h-139v54h211v-813h-211v54z" />
    <glyph glyph-name="asciicircum" unicode="^" horiz-adv-x="580"
d="M259 700h63l212 -473h-68l-175 401l-176 -401h-68z" />
    <glyph glyph-name="underscore" unicode="_" horiz-adv-x="311"
d="M0 -223h311v-55h-311v55z" />
    <glyph glyph-name="grave" unicode="`" horiz-adv-x="400"
d="M104 696h73l78 -142h-57z" />
    <glyph glyph-name="a" unicode="a" horiz-adv-x="510"
d="M91 32.5q-47 42.5 -47 109.5q0 74 55.5 115.5t155.5 41.5h112v27q0 62 -31.5 94.5t-92.5 32.5q-45 0 -82.5 -19.5t-60.5 -56.5l-38 44q32 43 79 66t106 23q91 0 140.5 -46t49.5 -130v-240q0 -37 11 -94h-60q-7 22 -13 74h-2q-28 -40 -70 -62t-92 -22q-73 0 -120 42.5z
M292 62q34 16 54.5 43.5t20.5 58.5v82h-115q-67 0 -103.5 -27t-36.5 -77q0 -43 29 -69.5t77 -26.5q40 0 74 16z" />
    <glyph glyph-name="b" unicode="b" horiz-adv-x="538"
d="M196.5 16q-44.5 26 -65.5 68h-2q0 -43 -3 -84h-62q3 35 3 124v618h69v-315h2q25 41 64 62t90 21q96 0 152.5 -68t56.5 -183q0 -82 -25.5 -142.5t-73 -93.5t-111.5 -33q-50 0 -94.5 26zM391.5 103.5q39.5 56.5 39.5 153.5q0 92 -39.5 145t-107.5 53q-67 0 -107.5 -45.5
t-40.5 -122.5v-87q0 -71 40 -112t108 -41t107.5 56.5z" />
    <glyph glyph-name="c" unicode="c" horiz-adv-x="467"
d="M97.5 58.5q-60.5 68.5 -60.5 191.5t60.5 191.5t168.5 68.5q61 0 108 -23.5t75 -69.5l-42 -39q-22 36 -59 55.5t-80 19.5q-76 0 -118.5 -53.5t-42.5 -149.5q0 -95 42.5 -149t118.5 -54q43 0 80 19.5t59 55.5l42 -39q-28 -46 -75 -69.5t-108 -23.5q-108 0 -168.5 68.5z" />
    <glyph glyph-name="d" unicode="d" horiz-adv-x="538"
d="M93 62q-56 72 -56 197q0 116 57 183.5t154 67.5q48 0 87 -21t66 -62h2v315h68v-618q0 -89 3 -124h-62q-3 42 -3 84h-2q-23 -43 -66.5 -68.5t-94.5 -25.5q-97 0 -153 72zM361 89q41 42 41 111v87q0 77 -40.5 122.5t-107.5 45.5q-69 0 -108 -52.5t-39 -145.5q0 -98 39 -154
t107 -56q67 0 108 42z" />
    <glyph glyph-name="e" unicode="e" horiz-adv-x="510"
d="M472 222h-364q6 -83 47.5 -128t112.5 -45q45 0 82 19.5t61 54.5l41 -39q-29 -45 -77.5 -69.5t-108.5 -24.5q-107 0 -167.5 68.5t-60.5 190.5t59.5 191.5t164.5 69.5q99 0 154.5 -67t55.5 -187v-34zM408 284q0 78 -40 123.5t-108 45.5t-107.5 -46t-44.5 -131h300v8z" />
    <glyph glyph-name="f" unicode="f" horiz-adv-x="316"
d="M91 447h-83v53h83v66q0 70 40 110.5t109 40.5q29 0 54.5 -8.5t40.5 -23.5l-26 -44q-24 21 -65 21q-39 0 -61.5 -25.5t-22.5 -71.5v-65h145v-53h-145v-447h-69v447z" />
    <glyph glyph-name="g" unicode="g" horiz-adv-x="538"
d="M471 500v-485q0 -118 -57.5 -179t-167.5 -61q-99 0 -177 43l23 53q39 -19 75 -27.5t77 -8.5q82 0 122 46.5t40 143.5v50q-22 -39 -63.5 -61.5t-94.5 -22.5q-98 0 -154.5 71.5t-56.5 196.5q0 116 56.5 183.5t153.5 67.5q51 0 91.5 -22t63.5 -63h2l10 75h57zM402 284
q0 79 -39.5 125t-106.5 46q-69 0 -109 -53t-40 -145q0 -98 39.5 -153.5t109.5 -55.5q68 0 107 41.5t39 113.5v81z" />
    <glyph glyph-name="h" unicode="h" horiz-adv-x="555"
d="M66 742h69v-329q24 44 70.5 70.5t101.5 26.5q88 0 135 -58t47 -167v-285h-69v286q0 82 -31.5 125.5t-90.5 43.5q-46 0 -83 -23.5t-58.5 -65t-21.5 -93.5v-273h-69v742z" />
    <glyph glyph-name="i" unicode="i" horiz-adv-x="236"
d="M79.5 611q-14.5 14 -14.5 37q0 24 14.5 38t38.5 14t38.5 -14t14.5 -38q0 -23 -14.5 -37t-38.5 -14t-38.5 14zM83 500h70v-500h-70v500z" />
    <glyph glyph-name="j" unicode="j" horiz-adv-x="237"
d="M87 611q-15 14 -15 37t15 37.5t39 14.5q23 0 37.5 -14.5t14.5 -37.5t-14.5 -37t-37.5 -14q-24 0 -39 14zM-42 -182l2 54q12 -1 32 -1q58 0 80 34.5t22 104.5v490h69v-495q0 -192 -152 -192q-21 0 -53 5z" />
    <glyph glyph-name="k" unicode="k" horiz-adv-x="472"
d="M384 0l-170 259l-79 -80v-179h-69v742h69v-479l234 237h83l-191 -194l203 -306h-80z" />
    <glyph glyph-name="l" unicode="l" horiz-adv-x="289"
d="M75 115v627h70v-626q0 -40 11.5 -56t40.5 -16q20 0 48 11l12 -43q-36 -22 -81 -22q-101 0 -101 125z" />
    <glyph glyph-name="m" unicode="m" horiz-adv-x="838"
d="M66 376q0 68 -4 124h62q3 -28 3 -89h3q22 46 64.5 72.5t94.5 26.5q54 0 92.5 -28.5t51.5 -78.5q20 49 64.5 78t99.5 29q82 0 128 -53.5t46 -147.5v-309h-69v305q0 72 -31 110t-89 38q-56 0 -93 -42.5t-37 -106.5v-304h-68v299q0 154 -113 154q-36 0 -67.5 -21t-50 -56.5
t-18.5 -74.5v-301h-69v376z" />
    <glyph glyph-name="n" unicode="n" horiz-adv-x="545"
d="M65 376q0 88 -3 124h63q4 -34 4 -95h3q22 48 69 76.5t103 28.5q87 0 131 -57t44 -169v-284h-69v285q0 85 -29 126.5t-88 41.5q-45 0 -81 -23.5t-56.5 -64.5t-20.5 -92v-273h-70v376z" />
    <glyph glyph-name="o" unicode="o" horiz-adv-x="550"
d="M149.5 22q-53.5 32 -82.5 91t-29 137t29 137t82.5 91t125.5 32t125.5 -32t82.5 -91t29 -137t-29 -137t-82.5 -91t-125.5 -32t-125.5 32zM397.5 100.5q45.5 55.5 45.5 149.5t-45.5 149.5t-122.5 55.5t-122.5 -55.5t-45.5 -149.5t45.5 -149.5t122.5 -55.5t122.5 55.5z" />
    <glyph glyph-name="p" unicode="p" horiz-adv-x="539"
d="M67 376q0 64 -4 124h63q3 -36 3 -84h2q20 41 65.5 67.5t97.5 26.5q97 0 152 -69t55 -191q0 -78 -26 -137t-73.5 -91t-110.5 -32q-51 0 -92 22.5t-60 60.5h-3v-315h-69v618zM391.5 101.5q40.5 56.5 40.5 151.5q0 94 -39 147t-109 53q-65 0 -106.5 -43t-41.5 -110v-87
q0 -76 40.5 -122t106.5 -46q68 0 108.5 56.5z" />
    <glyph glyph-name="q" unicode="q" horiz-adv-x="539"
d="M403 74h-3q-22 -39 -63 -61.5t-90 -22.5q-63 0 -110 32.5t-73 91.5t-26 137q0 121 55.5 190t152.5 69q53 0 98 -26t64 -67h2q0 40 3 83h63q-4 -56 -4 -124v-618h-69v316zM362.5 91q40.5 46 40.5 122v87q0 67 -41.5 110t-106.5 43q-70 0 -109 -53t-39 -147
q0 -95 40.5 -151.5t108.5 -56.5q66 0 106.5 46z" />
    <glyph glyph-name="r" unicode="r" horiz-adv-x="334"
d="M72 378q0 85 -3 122h64q4 -39 4 -88v-12h2q19 53 59.5 81.5t94.5 28.5q18 0 29 -3v-58q-16 2 -33 2q-41 0 -75 -25t-53.5 -69t-19.5 -97v-260h-69v378z" />
    <glyph glyph-name="s" unicode="s" horiz-adv-x="409"
d="M99.5 12q-43.5 22 -62.5 58l46 32q18 -28 48 -42.5t68 -14.5q45 0 74 26.5t29 67.5q0 33 -23.5 55.5t-81.5 44.5q-83 31 -116.5 64t-33.5 82q0 56 44 90.5t117 34.5q47 0 86.5 -21t58.5 -57l-44 -32q-34 55 -102 55q-40 0 -65.5 -19t-25.5 -49q0 -29 25 -49.5t93 -45.5
q74 -29 106 -64t32 -87q0 -68 -48 -109.5t-128 -41.5q-53 0 -96.5 22z" />
    <glyph glyph-name="t" unicode="t" horiz-adv-x="363"
d="M135 30.5q-35 40.5 -35 114.5v300h-90v55h90v135l65 21h4v-156h141v-55h-141v-291q0 -56 19 -81.5t60 -25.5q40 0 67 12l6 -53q-33 -16 -87 -16q-64 0 -99 40.5z" />
    <glyph glyph-name="u" unicode="u" horiz-adv-x="550"
d="M110.5 45.5q-44.5 55.5 -44.5 163.5v291h69v-294q0 -159 118 -159q45 0 80.5 23t56 64t20.5 92v274h69v-400q0 -46 9 -100h-62q-9 41 -10 94h-4q-22 -49 -68 -76.5t-103 -27.5q-86 0 -130.5 55.5z" />
    <glyph glyph-name="v" unicode="v" horiz-adv-x="463"
d="M452 500l-188 -500h-65l-188 500h72l149 -420l148 420h72z" />
    <glyph glyph-name="w" unicode="w" horiz-adv-x="655"
d="M645 500l-125 -500h-64l-128 427l-129 -427h-64l-124 500h73l87 -410l124 410h65l124 -410l87 410h74z" />
    <glyph glyph-name="x" unicode="x" horiz-adv-x="440"
d="M184 254l-160 246h78l118 -196l117 196h80l-161 -246l173 -254h-80l-129 210l-130 -210h-79z" />
    <glyph glyph-name="y" unicode="y" horiz-adv-x="448"
d="M437 500l-177 -504q-37 -103 -88.5 -152.5t-122.5 -49.5q-27 0 -48 6v52q17 -5 39 -5q53 0 89.5 39t73.5 136l-186 478h75l142 -403l127 403h76z" />
    <glyph glyph-name="z" unicode="z" horiz-adv-x="443"
d="M28 41l296 403h-282v56h363v-44l-291 -400h301v-56h-387v41z" />
    <glyph glyph-name="braceleft" unicode="{" horiz-adv-x="309"
d="M140 -79.5q-33 34.5 -33 108.5v171q0 70 -68 74v49q68 3 68 73v171q0 74 33 108.5t107 34.5h24v-55h-28q-39 0 -54.5 -20.5t-15.5 -68.5v-167q0 -39 -12.5 -62t-45.5 -39q60 -27 60 -101v-167q0 -48 15 -68.5t53 -20.5h28v-55h-24q-74 0 -107 34.5z" />
    <glyph glyph-name="bar" unicode="|" horiz-adv-x="238"
d="M85 700h68v-860h-68v860z" />
    <glyph glyph-name="braceright" unicode="}" horiz-adv-x="309"
d="M38 -59h28q39 0 54 20.5t15 68.5v167q0 36 14 61t46 40q-34 17 -46.5 39.5t-12.5 61.5v167q0 48 -15.5 68.5t-54.5 20.5h-28v55h25q74 0 107.5 -34.5t33.5 -108.5v-171q0 -36 16 -54t51 -19v-49q-35 -2 -52 -20.5t-17 -53.5v-171q0 -74 -33 -108.5t-106 -34.5h-25v55z
" />
    <glyph glyph-name="asciitilde" unicode="~" horiz-adv-x="603"
d="M64 209q0 60 35 97t90 37q31 0 59 -12.5t66 -36.5q35 -22 57.5 -32.5t45.5 -10.5q34 0 50 25t17 67h59v-13q0 -63 -33 -100t-88 -37q-32 0 -59.5 12.5t-68.5 37.5q-32 21 -55 31.5t-46 10.5q-33 0 -51 -24t-20 -68h-58v16z" />
    <glyph glyph-name="uni00A0" unicode="&#xa0;" horiz-adv-x="247"
 />
    <glyph glyph-name="exclamdown" unicode="&#xa1;" horiz-adv-x="230"
d="M72 410.5q-17 16.5 -17 41.5t17 41.5t43 16.5t43 -16.5t17 -41.5t-17 -41.5t-43 -16.5t-43 16.5zM84 315h62l11 -516h-84z" />
    <glyph glyph-name="cent" unicode="&#xa2;" horiz-adv-x="467"
d="M348 136.5q37 19.5 59 55.5l42 -39q-26 -42 -68 -65.5t-96 -26.5v-89h-52v90q-93 11 -144.5 78t-51.5 180t51.5 180t144.5 78v90h52v-89q54 -3 96 -26.5t68 -65.5l-42 -39q-22 36 -59 55.5t-80 19.5q-76 0 -118.5 -53.5t-42.5 -149.5q0 -95 42.5 -149t118.5 -54
q43 0 80 19.5z" />
    <glyph glyph-name="sterling" unicode="&#xa3;" horiz-adv-x="531"
d="M226 140q-23 -50 -67 -83h304v-57h-406v47q60 34 93 85t33 103q0 20 -9 79h-95v52h87q-19 106 -19 155q0 88 48.5 138.5t132.5 50.5q38 0 74 -12.5t61 -35.5l-25 -52q-21 18 -50 28.5t-57 10.5q-56 0 -86 -35.5t-30 -99.5q0 -26 6 -67t13 -81h167v-52h-159q7 -47 7 -71
q0 -53 -23 -103z" />
    <glyph glyph-name="currency" unicode="&#xa4;" horiz-adv-x="609"
d="M217.5 78.5q-43.5 15.5 -76.5 42.5l-59 -57l-48 46l58 57q-25 31 -40 76t-15 89t15 89t40 76l-58 57l48 46l59 -57q33 27 77 42.5t87 15.5q44 0 88.5 -15.5t75.5 -42.5l61 57l48 -48l-58 -55q25 -30 39 -74.5t14 -90.5t-14 -90.5t-39 -74.5l58 -57l-48 -46l-61 57
q-31 -27 -75.5 -42.5t-88.5 -15.5t-87.5 15.5zM408.5 153q45.5 26 71.5 72.5t26 105.5t-26 106.5t-71.5 74.5t-102.5 27q-58 0 -103.5 -26.5t-71 -74t-25.5 -107.5q0 -59 26 -105.5t71.5 -72.5t102.5 -26t102.5 26z" />
    <glyph glyph-name="yen" unicode="&#xa5;" horiz-adv-x="564"
d="M352 339h142v-53h-170l-4 -8v-73h174v-52h-174v-153h-75v153h-175v52h175v73l-4 8h-171v52h143l-189 362h83l175 -353l176 353h82z" />
    <glyph glyph-name="brokenbar" unicode="&#xa6;" horiz-adv-x="238"
d="M85 700h68v-383h-68v383zM85 223h68v-383h-68v383z" />
    <glyph glyph-name="section" unicode="&#xa7;" horiz-adv-x="525"
d="M477 61q0 -78 -58.5 -120.5t-153.5 -42.5q-72 0 -127.5 27.5t-88.5 73.5l44 45q32 -41 77 -63.5t98 -22.5q61 0 98 25t37 74q0 30 -16 50.5t-43 35t-87 41.5l-29 13q-62 27 -93.5 45t-51 44t-19.5 65q0 59 49 101q-47 39 -47 98q0 74 55.5 117t142.5 43q68 0 121 -27.5
t79 -76.5l-45 -34q-25 37 -66 58t-88 21q-56 0 -90.5 -27t-34.5 -70q0 -29 18 -49.5t49.5 -37t98.5 -46.5q62 -27 95.5 -46.5t55 -47.5t21.5 -69q0 -54 -43 -98q42 -37 42 -99zM145.5 317q13.5 -16 35 -28t66.5 -32t57 -26l28 -13q10 -5 24 -11t31 -15q26 33 26 60t-14.5 45
t-44 33t-98.5 45q-65 28 -94 44q-30 -28 -30 -65q0 -21 13.5 -37z" />
    <glyph glyph-name="dieresis" unicode="&#xa8;" horiz-adv-x="400"
d="M68.5 567q-13.5 13 -13.5 33q0 19 13.5 32t33.5 13t33 -13t13 -32t-13.5 -32.5t-32.5 -13.5q-20 0 -33.5 13zM264.5 567.5q-13.5 13.5 -13.5 32.5t13.5 32t33.5 13t33.5 -13t13.5 -32q0 -20 -13.5 -33t-33.5 -13t-33.5 13.5z" />
    <glyph glyph-name="copyright" unicode="&#xa9;" horiz-adv-x="802"
d="M214.5 36q-82.5 46 -128.5 128t-46 186t46 186t128.5 128t186.5 46t186.5 -46t128.5 -128t46 -186t-46 -186t-128.5 -128t-186.5 -46t-186.5 46zM561.5 76.5q70.5 40.5 110.5 112t40 161.5t-40 161.5t-110.5 112t-160.5 40.5q-89 0 -160 -40.5t-111 -112t-40 -161.5
t40 -161.5t111 -112t160 -40.5q90 0 160.5 40.5zM281 196.5q-47 58.5 -47 156.5q0 99 47.5 157t128.5 58q42 0 76 -17.5t51 -45.5l-30 -32q-16 22 -41.5 34.5t-55.5 12.5q-57 0 -90 -45t-33 -122t33 -122t88 -45q32 0 57.5 12.5t41.5 34.5l30 -32q-18 -28 -52 -45.5
t-77 -17.5q-80 0 -127 58.5z" />
    <glyph glyph-name="ordfeminine" unicode="&#xaa;" horiz-adv-x="362"
d="M74.5 389q-30.5 28 -30.5 74q0 49 35 77t100 28h76v16q0 41 -18.5 61t-59.5 20q-58 0 -90 -50l-28 32q20 28 51.5 44t71.5 16q62 0 94 -31t32 -86v-158q0 -27 7 -64h-48q-2 6 -8 49q-16 -27 -43.5 -41.5t-61.5 -14.5q-49 0 -79.5 28zM231 427.5q24 26.5 24 56.5v46h-70
q-44 0 -67 -17.5t-23 -49.5q0 -29 19.5 -45.5t49.5 -16.5q43 0 67 26.5z" />
    <glyph glyph-name="guillemotleft" unicode="&#xab;" horiz-adv-x="490"
d="M39 260l159 195h76l-156 -195l156 -195h-76zM215 260l160 195h76l-156 -195l156 -195h-76z" />
    <glyph glyph-name="logicalnot" unicode="&#xac;" horiz-adv-x="603"
d="M495 346h-459v54h527v-268h-68v214z" />
    <glyph glyph-name="uni00AD" unicode="&#xad;" horiz-adv-x="340"
d="M37 293h266v-54h-266v54z" />
    <glyph glyph-name="registered" unicode="&#xae;" horiz-adv-x="514"
d="M402 655q55 -55 55 -145q0 -59 -25 -104t-70.5 -70t-104.5 -25t-104.5 25t-70.5 70t-25 104q0 90 55 145t145 55t145 -55zM375.5 390q45.5 44 45.5 118q0 75 -44 121t-118 46q-75 0 -120.5 -44.5t-45.5 -118.5q0 -75 44 -120.5t118 -45.5q75 0 120.5 44zM289 487l48 -90
h-43l-46 87h-35v-87h-39v232h91q38 0 58 -18t20 -52q0 -60 -54 -72zM305 559q0 20 -11.5 28.5t-39.5 8.5h-41v-79h43q49 0 49 42z" />
    <glyph glyph-name="macron" unicode="&#xaf;" horiz-adv-x="400"
d="M37 622h327v-48h-327v48z" />
    <glyph glyph-name="degree" unicode="&#xb0;" horiz-adv-x="312"
d="M63.5 490.5q-35.5 35.5 -35.5 91.5q0 57 35.5 92.5t92.5 35.5t92.5 -35.5t35.5 -92.5q0 -56 -35.5 -91.5t-92.5 -35.5t-92.5 35.5zM215.5 521.5q23.5 23.5 23.5 60.5q0 38 -23.5 61.5t-59.5 23.5q-37 0 -59.5 -23.5t-22.5 -61.5t22.5 -61t59.5 -23q36 0 59.5 23.5z" />
    <glyph glyph-name="plusminus" unicode="&#xb1;" horiz-adv-x="603"
d="M334 304v-197h-65v197h-216v55h216v197h65v-197h217v-55h-217zM62 54h481v-54h-481v54z" />
    <glyph glyph-name="uni00B2" unicode="&#xb2;" horiz-adv-x="390"
d="M46 262q84 61 152.5 145.5t68.5 158.5q0 39 -23 62t-62 23q-35 0 -65.5 -17t-48.5 -44l-34 38q23 36 63.5 56t87.5 20q69 0 109 -37t40 -99q0 -130 -202 -308h224v-52h-310v54z" />
    <glyph glyph-name="uni00B3" unicode="&#xb3;" horiz-adv-x="390"
d="M97.5 218.5q-41.5 19.5 -61.5 52.5l33 39q19 -28 51.5 -43t67.5 -15q45 0 72.5 25.5t27.5 65.5q0 44 -34.5 69.5t-93.5 25.5h-25v51h24q51 0 82 26t31 66q0 33 -23 51.5t-60 18.5q-36 0 -67 -16t-49 -41l-32 38q23 34 64.5 53t89.5 19q63 0 102.5 -32.5t39.5 -84.5
q0 -41 -25.5 -74t-68.5 -47q53 -13 82 -46t29 -80q0 -63 -45.5 -102t-118.5 -39q-51 0 -92.5 19.5z" />
    <glyph glyph-name="acute" unicode="&#xb4;" horiz-adv-x="400"
d="M207 696h73l-95 -142h-56z" />
    <glyph glyph-name="uni00B5" unicode="&#xb5;" horiz-adv-x="550"
d="M66 500h69v-292q0 -75 31.5 -118.5t92.5 -43.5q67 0 109 51t42 131v272h69v-395q0 -48 10 -105h-63q-9 43 -11 86h-3q-48 -96 -152 -96q-39 0 -73 14.5t-52 42.5v-266h-69v719z" />
    <glyph glyph-name="paragraph" unicode="&#xb6;" horiz-adv-x="533"
d="M274 267h-6q-63 0 -115 26.5t-82.5 73.5t-30.5 107q0 226 291 226h112v-793h-46v750h-77v-750h-46v360z" />
    <glyph glyph-name="periodcentered" unicode="&#xb7;" horiz-adv-x="237"
d="M78 220.5q-16 16.5 -16 41.5q0 26 16 42.5t40 16.5t40 -16.5t16 -42.5q0 -25 -16 -41.5t-40 -16.5t-40 16.5z" />
    <glyph glyph-name="cedilla" unicode="&#xb8;" horiz-adv-x="400"
d="M148 -213.5q-21 2.5 -31 6.5l7 36q8 -2 23 -4t29 -2q26 0 42.5 11t16.5 33q0 18 -21 28.5t-60 10.5l-17 19l49 88h46l-37 -74q41 0 65.5 -18.5t24.5 -51.5q0 -39 -26.5 -62t-71.5 -23q-18 0 -39 2.5z" />
    <glyph glyph-name="uni00B9" unicode="&#xb9;" horiz-adv-x="390"
d="M85 260h84v361l-96 -56v60l120 73h42v-438h83v-52h-233v52z" />
    <glyph glyph-name="ordmasculine" unicode="&#xba;" horiz-adv-x="390"
d="M79.5 408q-42.5 47 -42.5 126t42.5 126t115.5 47t116 -47t43 -126t-43 -126t-116 -47t-115.5 47zM272.5 437q27.5 36 27.5 97t-27.5 97t-77.5 36q-49 0 -76.5 -36t-27.5 -97t27.5 -97t76.5 -36q50 0 77.5 36z" />
    <glyph glyph-name="guillemotright" unicode="&#xbb;" horiz-adv-x="490"
d="M195 260l-156 195h76l159 -195l-159 -195h-76zM372 260l-157 195h77l159 -195l-159 -195h-77z" />
    <glyph glyph-name="onequarter" unicode="&#xbc;" horiz-adv-x="948"
d="M83 314h75v321l-86 -50v53l107 66h37v-390h73v-46h-206v46zM656 692h59l-411 -710h-60zM758 74h-199v50l187 311h72v-315h47v-46h-47v-74h-60v74zM758 120v253l-149 -253h149z" />
    <glyph glyph-name="onehalf" unicode="&#xbd;" horiz-adv-x="948"
d="M83 314h75v321l-86 -50v53l107 66h37v-390h73v-46h-206v46zM616 692h59l-411 -710h-60zM608 48q75 55 136 130t61 140q0 34 -20.5 54.5t-55.5 20.5q-31 0 -58 -15t-43 -39l-30 35q20 32 56.5 49.5t77.5 17.5q61 0 96.5 -32.5t35.5 -88.5q0 -115 -179 -274h199v-46h-276
v48z" />
    <glyph glyph-name="threequarters" unicode="&#xbe;" horiz-adv-x="948"
d="M89.5 278.5q-36.5 17.5 -53.5 46.5l28 34q17 -24 46.5 -37.5t59.5 -13.5q40 0 64.5 23t24.5 58q0 39 -30.5 61.5t-82.5 22.5h-23v46h22q45 0 72.5 22.5t27.5 58.5q0 29 -20.5 45.5t-52.5 16.5t-60 -14t-44 -36l-29 34q21 30 58 47t80 17q56 0 91 -29t35 -75
q0 -36 -22.5 -65.5t-60.5 -41.5q47 -12 72.5 -41.5t25.5 -70.5q0 -56 -40 -91t-106 -35q-46 0 -82.5 17.5zM652 692h59l-412 -710h-59zM755 74h-199v50l186 311h72v-315h48v-46h-48v-74h-59v74zM755 120v253l-149 -253h149z" />
    <glyph glyph-name="questiondown" unicode="&#xbf;" horiz-adv-x="448"
d="M183 412.5q-16 15.5 -16 40.5t16 41t41 16t41.5 -16t16.5 -41t-16 -40.5t-42 -15.5q-25 0 -41 15.5zM86 -163.5q-49 46.5 -49 128.5q0 45 20.5 81t61.5 86q40 49 60.5 85t20.5 80q0 18 -4 44h63q6 -21 6 -48q0 -45 -20.5 -83t-60.5 -90q-37 -48 -55.5 -81t-18.5 -70
q0 -60 31.5 -90t91.5 -30q43 0 78.5 21.5t58.5 59.5l41 -45q-28 -45 -76.5 -70t-108.5 -25q-91 0 -140 46.5z" />
    <glyph glyph-name="Agrave" unicode="&#xc0;" horiz-adv-x="581"
d="M431 164h-281l-52 -164h-80l237 700h71l237 -700h-80zM412 225l-121 385l-122 -385h243zM169 894h74l76 -140h-57z" />
    <glyph glyph-name="Aacute" unicode="&#xc1;" horiz-adv-x="581"
d="M431 164h-281l-52 -164h-80l237 700h71l237 -700h-80zM412 225l-121 385l-122 -385h243zM341 894h74l-93 -140h-57z" />
    <glyph glyph-name="Acircumflex" unicode="&#xc2;" horiz-adv-x="581"
d="M431 164h-281l-52 -164h-80l237 700h71l237 -700h-80zM412 225l-121 385l-122 -385h243zM264 890h53l103 -136h-60l-70 91l-70 -91h-60z" />
    <glyph glyph-name="Atilde" unicode="&#xc3;" horiz-adv-x="581"
d="M431 164h-281l-52 -164h-80l237 700h71l237 -700h-80zM412 225l-121 385l-122 -385h243zM171 819.5q20 26.5 54 26.5q18 0 34.5 -7t38.5 -20q33 -20 48 -20q28 0 32 51h44q-1 -41 -22 -68.5t-55 -27.5q-18 0 -35 7.5t-38 20.5q-12 7 -24 13t-21 6q-13 0 -22 -12.5
t-10 -34.5h-45q1 39 21 65.5z" />
    <glyph glyph-name="Adieresis" unicode="&#xc4;" horiz-adv-x="581"
d="M431 164h-281l-52 -164h-80l237 700h71l237 -700h-80zM412 225l-121 385l-122 -385h243zM158.5 767q-13.5 13 -13.5 33q0 19 13.5 32t33.5 13t33 -13t13 -32t-13.5 -32.5t-32.5 -13.5q-20 0 -33.5 13zM354.5 767.5q-13.5 13.5 -13.5 32.5t13.5 32t33.5 13t33.5 -13
t13.5 -32q0 -20 -13.5 -33t-33.5 -13t-33.5 13.5z" />
    <glyph glyph-name="Aring" unicode="&#xc5;" horiz-adv-x="581"
d="M431 164h-281l-52 -164h-80l237 700h71l237 -700h-80zM412 225l-121 385l-122 -385h243zM225.5 744q-25.5 24 -25.5 61t25.5 61t64.5 24t64.5 -24t25.5 -61t-25.5 -61t-64.5 -24t-64.5 24zM326.5 768q14.5 15 14.5 37t-14.5 36.5t-36.5 14.5t-36.5 -14.5t-14.5 -36.5
t14.5 -37t36.5 -15t36.5 15z" />
    <glyph glyph-name="AE" unicode="&#xc6;" horiz-adv-x="791"
d="M447 638v-239h254v-61h-254v-276h288v-62h-362v161h-200l-73 -161h-82l331 700h386v-62h-288zM373 220v381l-173 -381h173z" />
    <glyph glyph-name="Ccedilla" unicode="&#xc7;" horiz-adv-x="576"
d="M506 138l41 -44q-25 -43 -74 -70.5t-112 -32.5l-28 -53q42 0 66.5 -18t24.5 -51q0 -38 -26 -61t-71 -23q-20 0 -40 3t-30 7l6 33q18 -5 52 -5q60 0 60 43q0 41 -81 40l-17 18l37 66q-85 4 -147.5 49t-96 124.5t-33.5 186.5q0 110 36.5 191t104.5 125t159 44
q69 0 125 -27.5t85 -76.5l-41 -44q-56 86 -167 86q-108 0 -167.5 -78t-59.5 -220q0 -140 58.5 -219t162.5 -79q120 0 173 86z" />
    <glyph glyph-name="Egrave" unicode="&#xc8;" horiz-adv-x="546"
d="M86 700h404v-62h-330v-238h295v-63h-295v-275h330v-62h-404v700zM172 894h74l76 -140h-57z" />
    <glyph glyph-name="Eacute" unicode="&#xc9;" horiz-adv-x="546"
d="M86 700h404v-62h-330v-238h295v-63h-295v-275h330v-62h-404v700zM344 894h74l-93 -140h-57z" />
    <glyph glyph-name="Ecircumflex" unicode="&#xca;" horiz-adv-x="546"
d="M86 700h404v-62h-330v-238h295v-63h-295v-275h330v-62h-404v700zM267 890h53l103 -136h-60l-70 91l-70 -91h-60z" />
    <glyph glyph-name="Edieresis" unicode="&#xcb;" horiz-adv-x="546"
d="M86 700h404v-62h-330v-238h295v-63h-295v-275h330v-62h-404v700zM161.5 767q-13.5 13 -13.5 33q0 19 13.5 32t33.5 13t33 -13t13 -32t-13.5 -32.5t-32.5 -13.5q-20 0 -33.5 13zM357.5 767.5q-13.5 13.5 -13.5 32.5t13.5 32t33.5 13t33.5 -13t13.5 -32q0 -20 -13.5 -33
t-33.5 -13t-33.5 13.5z" />
    <glyph glyph-name="Igrave" unicode="&#xcc;" horiz-adv-x="284"
d="M105 700h74v-700h-74v700zM22 894h74l76 -140h-57z" />
    <glyph glyph-name="Iacute" unicode="&#xcd;" horiz-adv-x="284"
d="M105 700h74v-700h-74v700zM194 894h74l-93 -140h-57z" />
    <glyph glyph-name="Icircumflex" unicode="&#xce;" horiz-adv-x="284"
d="M105 700h74v-700h-74v700zM117 890h53l103 -136h-60l-70 91l-70 -91h-60z" />
    <glyph glyph-name="Idieresis" unicode="&#xcf;" horiz-adv-x="284"
d="M105 700h74v-700h-74v700zM11.5 767q-13.5 13 -13.5 33q0 19 13.5 32t33.5 13t33 -13t13 -32t-13.5 -32.5t-32.5 -13.5q-20 0 -33.5 13zM207.5 767.5q-13.5 13.5 -13.5 32.5t13.5 32t33.5 13t33.5 -13t13.5 -32q0 -20 -13.5 -33t-33.5 -13t-33.5 13.5z" />
    <glyph glyph-name="Eth" unicode="&#xd0;" horiz-adv-x="619"
d="M505 617.5q66 -82.5 66 -253.5q0 -129 -30.5 -209t-95.5 -117.5t-171 -37.5h-187v308h-79v59h79v333h215q137 0 203 -82.5zM448 134.5q50 72.5 50 229.5q0 143 -47 208.5t-151 65.5h-139v-271h221v-59h-221v-246h129q108 0 158 72.5z" />
    <glyph glyph-name="Ntilde" unicode="&#xd1;" horiz-adv-x="677"
d="M591 700v-700h-75l-357 588v-588h-74v700h82l351 -581v581h73zM219 819.5q20 26.5 54 26.5q18 0 34.5 -7t38.5 -20q33 -20 48 -20q28 0 32 51h44q-1 -41 -22 -68.5t-55 -27.5q-18 0 -35 7.5t-38 20.5q-12 7 -24 13t-21 6q-13 0 -22 -12.5t-10 -34.5h-45q1 39 21 65.5z
" />
    <glyph glyph-name="Ograve" unicode="&#xd2;" horiz-adv-x="655"
d="M174 34q-66 44 -101.5 125t-35.5 191t35.5 191t101.5 125t154 44t153.5 -44t101 -125t35.5 -191t-35.5 -191t-101 -125t-153.5 -44t-154 44zM443 87.5q49 36.5 75 104t26 158.5t-26 158.5t-75 104t-115 36.5t-115 -36.5t-75.5 -104t-26.5 -158.5t26.5 -158.5t75.5 -104
t115 -36.5t115 36.5zM207 894h74l76 -140h-57z" />
    <glyph glyph-name="Oacute" unicode="&#xd3;" horiz-adv-x="655"
d="M174 34q-66 44 -101.5 125t-35.5 191t35.5 191t101.5 125t154 44t153.5 -44t101 -125t35.5 -191t-35.5 -191t-101 -125t-153.5 -44t-154 44zM443 87.5q49 36.5 75 104t26 158.5t-26 158.5t-75 104t-115 36.5t-115 -36.5t-75.5 -104t-26.5 -158.5t26.5 -158.5t75.5 -104
t115 -36.5t115 36.5zM379 894h74l-93 -140h-57z" />
    <glyph glyph-name="Ocircumflex" unicode="&#xd4;" horiz-adv-x="655"
d="M174 34q-66 44 -101.5 125t-35.5 191t35.5 191t101.5 125t154 44t153.5 -44t101 -125t35.5 -191t-35.5 -191t-101 -125t-153.5 -44t-154 44zM443 87.5q49 36.5 75 104t26 158.5t-26 158.5t-75 104t-115 36.5t-115 -36.5t-75.5 -104t-26.5 -158.5t26.5 -158.5t75.5 -104
t115 -36.5t115 36.5zM302 890h53l103 -136h-60l-70 91l-70 -91h-60z" />
    <glyph glyph-name="Otilde" unicode="&#xd5;" horiz-adv-x="655"
d="M174 34q-66 44 -101.5 125t-35.5 191t35.5 191t101.5 125t154 44t153.5 -44t101 -125t35.5 -191t-35.5 -191t-101 -125t-153.5 -44t-154 44zM443 87.5q49 36.5 75 104t26 158.5t-26 158.5t-75 104t-115 36.5t-115 -36.5t-75.5 -104t-26.5 -158.5t26.5 -158.5t75.5 -104
t115 -36.5t115 36.5zM209 819.5q20 26.5 54 26.5q18 0 34.5 -7t38.5 -20q33 -20 48 -20q28 0 32 51h44q-1 -41 -22 -68.5t-55 -27.5q-18 0 -35 7.5t-38 20.5q-12 7 -24 13t-21 6q-13 0 -22 -12.5t-10 -34.5h-45q1 39 21 65.5z" />
    <glyph glyph-name="Odieresis" unicode="&#xd6;" horiz-adv-x="655"
d="M174 34q-66 44 -101.5 125t-35.5 191t35.5 191t101.5 125t154 44t153.5 -44t101 -125t35.5 -191t-35.5 -191t-101 -125t-153.5 -44t-154 44zM443 87.5q49 36.5 75 104t26 158.5t-26 158.5t-75 104t-115 36.5t-115 -36.5t-75.5 -104t-26.5 -158.5t26.5 -158.5t75.5 -104
t115 -36.5t115 36.5zM196.5 767q-13.5 13 -13.5 33q0 19 13.5 32t33.5 13t33 -13t13 -32t-13.5 -32.5t-32.5 -13.5q-20 0 -33.5 13zM392.5 767.5q-13.5 13.5 -13.5 32.5t13.5 32t33.5 13t33.5 -13t13.5 -32q0 -20 -13.5 -33t-33.5 -13t-33.5 13.5z" />
    <glyph glyph-name="multiply" unicode="&#xd7;" horiz-adv-x="603"
d="M300 212l-189 -199l-46 42l191 203l-191 200l46 42l189 -198l191 198l47 -42l-191 -200l191 -203l-47 -42z" />
    <glyph glyph-name="Oslash" unicode="&#xd8;" horiz-adv-x="655"
d="M591.5 518.5q26.5 -73.5 26.5 -168.5q0 -110 -35.5 -191t-101 -125t-153.5 -44q-78 0 -139 35l-36 -68h-61l53 100q-52 46 -80 121t-28 172q0 110 35.5 191t101.5 125t154 44q78 0 142 -36l27 51h64l-46 -86q50 -47 76.5 -120.5zM128 217.5q17 -58.5 50 -97.5l261 495
q-48 34 -111 34q-66 0 -115 -36.5t-75.5 -104t-26.5 -158.5q0 -74 17 -132.5zM443 87.5q49 36.5 75 104t26 158.5q0 145 -63 225l-261 -492q46 -32 108 -32q66 0 115 36.5z" />
    <glyph glyph-name="Ugrave" unicode="&#xd9;" horiz-adv-x="656"
d="M84 275v425h74v-423q0 -225 171 -225q170 0 170 225v423h74v-425q0 -141 -61.5 -213t-182.5 -72q-245 0 -245 285zM208 894h74l76 -140h-57z" />
    <glyph glyph-name="Uacute" unicode="&#xda;" horiz-adv-x="656"
d="M84 275v425h74v-423q0 -225 171 -225q170 0 170 225v423h74v-425q0 -141 -61.5 -213t-182.5 -72q-245 0 -245 285zM380 894h74l-93 -140h-57z" />
    <glyph glyph-name="Ucircumflex" unicode="&#xdb;" horiz-adv-x="656"
d="M84 275v425h74v-423q0 -225 171 -225q170 0 170 225v423h74v-425q0 -141 -61.5 -213t-182.5 -72q-245 0 -245 285zM303 890h53l103 -136h-60l-70 91l-70 -91h-60z" />
    <glyph glyph-name="Udieresis" unicode="&#xdc;" horiz-adv-x="656"
d="M84 275v425h74v-423q0 -225 171 -225q170 0 170 225v423h74v-425q0 -141 -61.5 -213t-182.5 -72q-245 0 -245 285zM197.5 767q-13.5 13 -13.5 33q0 19 13.5 32t33.5 13t33 -13t13 -32t-13.5 -32.5t-32.5 -13.5q-20 0 -33.5 13zM393.5 767.5q-13.5 13.5 -13.5 32.5
t13.5 32t33.5 13t33.5 -13t13.5 -32q0 -20 -13.5 -33t-33.5 -13t-33.5 13.5z" />
    <glyph glyph-name="Yacute" unicode="&#xdd;" horiz-adv-x="554"
d="M240 278l-221 422h82l176 -353l175 353h83l-220 -422v-278h-75v278zM328 894h74l-93 -140h-57z" />
    <glyph glyph-name="Thorn" unicode="&#xde;" horiz-adv-x="565"
d="M86 700h74v-99h120q112 0 170.5 -53t58.5 -154q0 -107 -60.5 -164.5t-173.5 -57.5h-115v-172h-74v700zM287 234q73 0 112 40.5t39 115.5q0 73 -41 111.5t-118 38.5h-119v-306h127z" />
    <glyph glyph-name="germandbls" unicode="&#xdf;" horiz-adv-x="562"
d="M263.5 10.5q-43.5 20.5 -65.5 59.5l46 32q19 -28 47.5 -42.5t60.5 -14.5q46 0 75 25.5t29 68.5q0 42 -24.5 63.5t-78.5 40.5q-54 20 -77 46t-23 67q0 33 16.5 54t50.5 49q33 26 48.5 46t15.5 50q0 48 -29.5 73.5t-84.5 25.5q-70 0 -103 -42.5t-33 -129.5v-482h-68v487
q0 109 51 166t149 57q90 0 137 -39.5t47 -115.5q0 -40 -21 -67.5t-59 -58.5q-27 -22 -39.5 -36.5t-12.5 -32.5q0 -26 21.5 -42.5t58.5 -29.5q58 -22 92.5 -55t34.5 -92q0 -69 -46.5 -110t-121.5 -41q-50 0 -93.5 20.5z" />
    <glyph glyph-name="agrave" unicode="&#xe0;" horiz-adv-x="510"
d="M91 32.5q-47 42.5 -47 109.5q0 74 55.5 115.5t155.5 41.5h112v27q0 62 -31.5 94.5t-92.5 32.5q-45 0 -82.5 -19.5t-60.5 -56.5l-38 44q32 43 79 66t106 23q91 0 140.5 -46t49.5 -130v-240q0 -37 11 -94h-60q-7 22 -13 74h-2q-28 -40 -70 -62t-92 -22q-73 0 -120 42.5z
M292 62q34 16 54.5 43.5t20.5 58.5v82h-115q-67 0 -103.5 -27t-36.5 -77q0 -43 29 -69.5t77 -26.5q40 0 74 16zM131 694h74l76 -140h-57z" />
    <glyph glyph-name="aacute" unicode="&#xe1;" horiz-adv-x="510"
d="M91 32.5q-47 42.5 -47 109.5q0 74 55.5 115.5t155.5 41.5h112v27q0 62 -31.5 94.5t-92.5 32.5q-45 0 -82.5 -19.5t-60.5 -56.5l-38 44q32 43 79 66t106 23q91 0 140.5 -46t49.5 -130v-240q0 -37 11 -94h-60q-7 22 -13 74h-2q-28 -40 -70 -62t-92 -22q-73 0 -120 42.5z
M292 62q34 16 54.5 43.5t20.5 58.5v82h-115q-67 0 -103.5 -27t-36.5 -77q0 -43 29 -69.5t77 -26.5q40 0 74 16zM303 694h74l-93 -140h-57z" />
    <glyph glyph-name="acircumflex" unicode="&#xe2;" horiz-adv-x="510"
d="M91 32.5q-47 42.5 -47 109.5q0 74 55.5 115.5t155.5 41.5h112v27q0 62 -31.5 94.5t-92.5 32.5q-45 0 -82.5 -19.5t-60.5 -56.5l-38 44q32 43 79 66t106 23q91 0 140.5 -46t49.5 -130v-240q0 -37 11 -94h-60q-7 22 -13 74h-2q-28 -40 -70 -62t-92 -22q-73 0 -120 42.5z
M292 62q34 16 54.5 43.5t20.5 58.5v82h-115q-67 0 -103.5 -27t-36.5 -77q0 -43 29 -69.5t77 -26.5q40 0 74 16zM226 690h53l103 -136h-60l-70 91l-70 -91h-60z" />
    <glyph glyph-name="atilde" unicode="&#xe3;" horiz-adv-x="510"
d="M91 32.5q-47 42.5 -47 109.5q0 74 55.5 115.5t155.5 41.5h112v27q0 62 -31.5 94.5t-92.5 32.5q-45 0 -82.5 -19.5t-60.5 -56.5l-38 44q32 43 79 66t106 23q91 0 140.5 -46t49.5 -130v-240q0 -37 11 -94h-60q-7 22 -13 74h-2q-28 -40 -70 -62t-92 -22q-73 0 -120 42.5z
M292 62q34 16 54.5 43.5t20.5 58.5v82h-115q-67 0 -103.5 -27t-36.5 -77q0 -43 29 -69.5t77 -26.5q40 0 74 16zM133 619.5q20 26.5 54 26.5q18 0 34.5 -7t38.5 -20q33 -20 48 -20q28 0 32 51h44q-1 -41 -22 -68.5t-55 -27.5q-18 0 -35 7.5t-38 20.5q-12 7 -24 13t-21 6
q-13 0 -22 -12.5t-10 -34.5h-45q1 39 21 65.5z" />
    <glyph glyph-name="adieresis" unicode="&#xe4;" horiz-adv-x="510"
d="M91 32.5q-47 42.5 -47 109.5q0 74 55.5 115.5t155.5 41.5h112v27q0 62 -31.5 94.5t-92.5 32.5q-45 0 -82.5 -19.5t-60.5 -56.5l-38 44q32 43 79 66t106 23q91 0 140.5 -46t49.5 -130v-240q0 -37 11 -94h-60q-7 22 -13 74h-2q-28 -40 -70 -62t-92 -22q-73 0 -120 42.5z
M292 62q34 16 54.5 43.5t20.5 58.5v82h-115q-67 0 -103.5 -27t-36.5 -77q0 -43 29 -69.5t77 -26.5q40 0 74 16zM120.5 567q-13.5 13 -13.5 33q0 19 13.5 32t33.5 13t33 -13t13 -32t-13.5 -32.5t-32.5 -13.5q-20 0 -33.5 13zM316.5 567.5q-13.5 13.5 -13.5 32.5t13.5 32
t33.5 13t33.5 -13t13.5 -32q0 -20 -13.5 -33t-33.5 -13t-33.5 13.5z" />
    <glyph glyph-name="aring" unicode="&#xe5;" horiz-adv-x="510"
d="M91 32.5q-47 42.5 -47 109.5q0 74 55.5 115.5t155.5 41.5h112v27q0 62 -31.5 94.5t-92.5 32.5q-45 0 -82.5 -19.5t-60.5 -56.5l-38 44q32 43 79 66t106 23q91 0 140.5 -46t49.5 -130v-240q0 -37 11 -94h-60q-7 22 -13 74h-2q-28 -40 -70 -62t-92 -22q-73 0 -120 42.5z
M292 62q34 16 54.5 43.5t20.5 58.5v82h-115q-67 0 -103.5 -27t-36.5 -77q0 -43 29 -69.5t77 -26.5q40 0 74 16zM187.5 567q-25.5 24 -25.5 61t25.5 61t64.5 24t64.5 -24t25.5 -61t-25.5 -61t-64.5 -24t-64.5 24zM288.5 591q14.5 15 14.5 37t-14.5 36.5t-36.5 14.5
t-36.5 -14.5t-14.5 -36.5t14.5 -37t36.5 -15t36.5 15z" />
    <glyph glyph-name="ae" unicode="&#xe6;" horiz-adv-x="834"
d="M796 240h-363q2 -91 44 -141t115 -50q45 0 81.5 19t61.5 55l40 -39q-28 -44 -76.5 -69t-107.5 -25q-63 0 -110 24.5t-76 71.5q-28 -44 -79 -70t-113 -26q-75 0 -122 41t-47 106q0 72 53 113.5t145 41.5h122v34q0 62 -31 94.5t-90 32.5q-45 0 -83 -20t-61 -56l-37 44
q31 43 79 66t106 23q60 0 102 -22t63 -64q30 42 74.5 64t101.5 22q100 0 154 -62.5t54 -176.5v-31zM728 301q0 73 -37.5 112.5t-105.5 39.5q-63 0 -102 -42t-48 -119h293v9zM364 240h-114q-64 0 -101.5 -28t-37.5 -75q0 -41 29.5 -66t76.5 -25q63 0 105 34t42 84v76z" />
    <glyph glyph-name="ccedilla" unicode="&#xe7;" horiz-adv-x="467"
d="M348 66.5q37 19.5 59 55.5l42 -39q-53 -84 -163 -92l-27 -53q42 0 66.5 -18t24.5 -51q0 -38 -26 -61t-71 -23q-20 0 -40 3t-30 7l6 33q18 -5 52 -5q60 0 60 43q0 41 -81 40l-17 18l38 67q-97 8 -150.5 76t-53.5 183q0 123 60.5 191.5t168.5 68.5q61 0 108 -23.5t75 -69.5
l-42 -39q-22 36 -59 55.5t-80 19.5q-76 0 -118.5 -53.5t-42.5 -149.5q0 -95 42.5 -149t118.5 -54q43 0 80 19.5z" />
    <glyph glyph-name="egrave" unicode="&#xe8;" horiz-adv-x="510"
d="M472 222h-364q6 -83 47.5 -128t112.5 -45q45 0 82 19.5t61 54.5l41 -39q-29 -45 -77.5 -69.5t-108.5 -24.5q-107 0 -167.5 68.5t-60.5 190.5t59.5 191.5t164.5 69.5q99 0 154.5 -67t55.5 -187v-34zM408 284q0 78 -40 123.5t-108 45.5t-107.5 -46t-44.5 -131h300v8z
M143 694h74l76 -140h-57z" />
    <glyph glyph-name="eacute" unicode="&#xe9;" horiz-adv-x="510"
d="M472 222h-364q6 -83 47.5 -128t112.5 -45q45 0 82 19.5t61 54.5l41 -39q-29 -45 -77.5 -69.5t-108.5 -24.5q-107 0 -167.5 68.5t-60.5 190.5t59.5 191.5t164.5 69.5q99 0 154.5 -67t55.5 -187v-34zM408 284q0 78 -40 123.5t-108 45.5t-107.5 -46t-44.5 -131h300v8z
M315 694h74l-93 -140h-57z" />
    <glyph glyph-name="ecircumflex" unicode="&#xea;" horiz-adv-x="510"
d="M472 222h-364q6 -83 47.5 -128t112.5 -45q45 0 82 19.5t61 54.5l41 -39q-29 -45 -77.5 -69.5t-108.5 -24.5q-107 0 -167.5 68.5t-60.5 190.5t59.5 191.5t164.5 69.5q99 0 154.5 -67t55.5 -187v-34zM408 284q0 78 -40 123.5t-108 45.5t-107.5 -46t-44.5 -131h300v8z
M238 690h53l103 -136h-60l-70 91l-70 -91h-60z" />
    <glyph glyph-name="edieresis" unicode="&#xeb;" horiz-adv-x="510"
d="M472 222h-364q6 -83 47.5 -128t112.5 -45q45 0 82 19.5t61 54.5l41 -39q-29 -45 -77.5 -69.5t-108.5 -24.5q-107 0 -167.5 68.5t-60.5 190.5t59.5 191.5t164.5 69.5q99 0 154.5 -67t55.5 -187v-34zM408 284q0 78 -40 123.5t-108 45.5t-107.5 -46t-44.5 -131h300v8z
M132.5 567q-13.5 13 -13.5 33q0 19 13.5 32t33.5 13t33 -13t13 -32t-13.5 -32.5t-32.5 -13.5q-20 0 -33.5 13zM328.5 567.5q-13.5 13.5 -13.5 32.5t13.5 32t33.5 13t33.5 -13t13.5 -32q0 -20 -13.5 -33t-33.5 -13t-33.5 13.5z" />
    <glyph glyph-name="igrave" unicode="&#xec;" horiz-adv-x="244"
d="M87 500h70v-500h-70v500zM1 694h74l76 -140h-57z" />
    <glyph glyph-name="iacute" unicode="&#xed;" horiz-adv-x="244"
d="M87 500h70v-500h-70v500zM173 694h74l-93 -140h-57z" />
    <glyph glyph-name="icircumflex" unicode="&#xee;" horiz-adv-x="244"
d="M87 500h70v-500h-70v500zM96 690h53l103 -136h-60l-70 91l-70 -91h-60z" />
    <glyph glyph-name="idieresis" unicode="&#xef;" horiz-adv-x="244"
d="M87 500h70v-500h-70v500zM-9.5 567q-13.5 13 -13.5 33q0 19 13.5 32t33.5 13t33 -13t13 -32t-13.5 -32.5t-32.5 -13.5q-20 0 -33.5 13zM186.5 567.5q-13.5 13.5 -13.5 32.5t13.5 32t33.5 13t33.5 -13t13.5 -32q0 -20 -13.5 -33t-33.5 -13t-33.5 13.5z" />
    <glyph glyph-name="eth" unicode="&#xf0;" horiz-adv-x="494"
d="M416.5 441.5q39.5 -88.5 39.5 -188.5q0 -122 -57.5 -192.5t-157.5 -70.5q-59 0 -105.5 28t-72 78t-25.5 115q0 66 26 119t71.5 82.5t103.5 29.5q41 0 76.5 -17t55.5 -46q-28 106 -113 184l-130 -84l-29 43l116 75q-64 44 -139 63l6 44q97 -16 182 -75l114 74l28 -44
l-100 -65q71 -64 110.5 -152.5zM349 94q39 46 39 121q0 77 -38.5 123.5t-103.5 46.5q-63 0 -101 -46.5t-38 -123.5q0 -75 38 -121t101 -46q64 0 103 46z" />
    <glyph glyph-name="ntilde" unicode="&#xf1;" horiz-adv-x="545"
d="M65 376q0 88 -3 124h63q4 -34 4 -95h3q22 48 69 76.5t103 28.5q87 0 131 -57t44 -169v-284h-69v285q0 85 -29 126.5t-88 41.5q-45 0 -81 -23.5t-56.5 -64.5t-20.5 -92v-273h-70v376zM154 619.5q20 26.5 54 26.5q18 0 34.5 -7t38.5 -20q33 -20 48 -20q28 0 32 51h44
q-1 -41 -22 -68.5t-55 -27.5q-18 0 -35 7.5t-38 20.5q-12 7 -24 13t-21 6q-13 0 -22 -12.5t-10 -34.5h-45q1 39 21 65.5z" />
    <glyph glyph-name="ograve" unicode="&#xf2;" horiz-adv-x="550"
d="M149.5 22q-53.5 32 -82.5 91t-29 137t29 137t82.5 91t125.5 32t125.5 -32t82.5 -91t29 -137t-29 -137t-82.5 -91t-125.5 -32t-125.5 32zM397.5 100.5q45.5 55.5 45.5 149.5t-45.5 149.5t-122.5 55.5t-122.5 -55.5t-45.5 -149.5t45.5 -149.5t122.5 -55.5t122.5 55.5z
M154 694h74l76 -140h-57z" />
    <glyph glyph-name="oacute" unicode="&#xf3;" horiz-adv-x="550"
d="M149.5 22q-53.5 32 -82.5 91t-29 137t29 137t82.5 91t125.5 32t125.5 -32t82.5 -91t29 -137t-29 -137t-82.5 -91t-125.5 -32t-125.5 32zM397.5 100.5q45.5 55.5 45.5 149.5t-45.5 149.5t-122.5 55.5t-122.5 -55.5t-45.5 -149.5t45.5 -149.5t122.5 -55.5t122.5 55.5z
M326 694h74l-93 -140h-57z" />
    <glyph glyph-name="ocircumflex" unicode="&#xf4;" horiz-adv-x="550"
d="M149.5 22q-53.5 32 -82.5 91t-29 137t29 137t82.5 91t125.5 32t125.5 -32t82.5 -91t29 -137t-29 -137t-82.5 -91t-125.5 -32t-125.5 32zM397.5 100.5q45.5 55.5 45.5 149.5t-45.5 149.5t-122.5 55.5t-122.5 -55.5t-45.5 -149.5t45.5 -149.5t122.5 -55.5t122.5 55.5z
M249 690h53l103 -136h-60l-70 91l-70 -91h-60z" />
    <glyph glyph-name="otilde" unicode="&#xf5;" horiz-adv-x="550"
d="M149.5 22q-53.5 32 -82.5 91t-29 137t29 137t82.5 91t125.5 32t125.5 -32t82.5 -91t29 -137t-29 -137t-82.5 -91t-125.5 -32t-125.5 32zM397.5 100.5q45.5 55.5 45.5 149.5t-45.5 149.5t-122.5 55.5t-122.5 -55.5t-45.5 -149.5t45.5 -149.5t122.5 -55.5t122.5 55.5z
M156 619.5q20 26.5 54 26.5q18 0 34.5 -7t38.5 -20q33 -20 48 -20q28 0 32 51h44q-1 -41 -22 -68.5t-55 -27.5q-18 0 -35 7.5t-38 20.5q-12 7 -24 13t-21 6q-13 0 -22 -12.5t-10 -34.5h-45q1 39 21 65.5z" />
    <glyph glyph-name="odieresis" unicode="&#xf6;" horiz-adv-x="550"
d="M149.5 22q-53.5 32 -82.5 91t-29 137t29 137t82.5 91t125.5 32t125.5 -32t82.5 -91t29 -137t-29 -137t-82.5 -91t-125.5 -32t-125.5 32zM397.5 100.5q45.5 55.5 45.5 149.5t-45.5 149.5t-122.5 55.5t-122.5 -55.5t-45.5 -149.5t45.5 -149.5t122.5 -55.5t122.5 55.5z
M143.5 567q-13.5 13 -13.5 33q0 19 13.5 32t33.5 13t33 -13t13 -32t-13.5 -32.5t-32.5 -13.5q-20 0 -33.5 13zM339.5 567.5q-13.5 13.5 -13.5 32.5t13.5 32t33.5 13t33.5 -13t13.5 -32q0 -20 -13.5 -33t-33.5 -13t-33.5 13.5z" />
    <glyph glyph-name="divide" unicode="&#xf7;" horiz-adv-x="603"
d="M263.5 406q-15.5 15 -15.5 38t15.5 38t38.5 15q24 0 39 -15t15 -38t-15 -38t-39 -15q-23 0 -38.5 15zM53 290h498v-56h-498v56zM263.5 42.5q-15.5 15.5 -15.5 38.5q0 22 15.5 37t38.5 15q24 0 39 -14.5t15 -37.5t-15 -38.5t-39 -15.5q-23 0 -38.5 15.5z" />
    <glyph glyph-name="oslash" unicode="&#xf8;" horiz-adv-x="550"
d="M488.5 375q23.5 -55 23.5 -125q0 -78 -29 -137t-82.5 -91t-125.5 -32q-54 0 -96 18l-27 -51h-54l39 73q-48 33 -73.5 89.5t-25.5 130.5q0 78 29 137t82.5 91t125.5 32q57 0 103 -20l24 45h58l-38 -72q43 -33 66.5 -88zM166 86l185 351q-33 18 -76 18q-77 0 -122.5 -55.5
t-45.5 -149.5q0 -108 59 -164zM397.5 100.5q45.5 55.5 45.5 149.5q0 99 -52 156l-185 -347q33 -14 69 -14q77 0 122.5 55.5z" />
    <glyph glyph-name="ugrave" unicode="&#xf9;" horiz-adv-x="550"
d="M110.5 45.5q-44.5 55.5 -44.5 163.5v291h69v-294q0 -159 118 -159q45 0 80.5 23t56 64t20.5 92v274h69v-400q0 -46 9 -100h-62q-9 41 -10 94h-4q-22 -49 -68 -76.5t-103 -27.5q-86 0 -130.5 55.5zM156 694h74l76 -140h-57z" />
    <glyph glyph-name="uacute" unicode="&#xfa;" horiz-adv-x="550"
d="M110.5 45.5q-44.5 55.5 -44.5 163.5v291h69v-294q0 -159 118 -159q45 0 80.5 23t56 64t20.5 92v274h69v-400q0 -46 9 -100h-62q-9 41 -10 94h-4q-22 -49 -68 -76.5t-103 -27.5q-86 0 -130.5 55.5zM328 694h74l-93 -140h-57z" />
    <glyph glyph-name="ucircumflex" unicode="&#xfb;" horiz-adv-x="550"
d="M110.5 45.5q-44.5 55.5 -44.5 163.5v291h69v-294q0 -159 118 -159q45 0 80.5 23t56 64t20.5 92v274h69v-400q0 -46 9 -100h-62q-9 41 -10 94h-4q-22 -49 -68 -76.5t-103 -27.5q-86 0 -130.5 55.5zM251 690h53l103 -136h-60l-70 91l-70 -91h-60z" />
    <glyph glyph-name="udieresis" unicode="&#xfc;" horiz-adv-x="550"
d="M110.5 45.5q-44.5 55.5 -44.5 163.5v291h69v-294q0 -159 118 -159q45 0 80.5 23t56 64t20.5 92v274h69v-400q0 -46 9 -100h-62q-9 41 -10 94h-4q-22 -49 -68 -76.5t-103 -27.5q-86 0 -130.5 55.5zM145.5 567q-13.5 13 -13.5 33q0 19 13.5 32t33.5 13t33 -13t13 -32
t-13.5 -32.5t-32.5 -13.5q-20 0 -33.5 13zM341.5 567.5q-13.5 13.5 -13.5 32.5t13.5 32t33.5 13t33.5 -13t13.5 -32q0 -20 -13.5 -33t-33.5 -13t-33.5 13.5z" />
    <glyph glyph-name="yacute" unicode="&#xfd;" horiz-adv-x="448"
d="M437 500l-177 -504q-37 -103 -88.5 -152.5t-122.5 -49.5q-27 0 -48 6v52q17 -5 39 -5q53 0 89.5 39t73.5 136l-186 478h75l142 -403l127 403h76zM281 694h74l-93 -140h-57z" />
    <glyph glyph-name="thorn" unicode="&#xfe;" horiz-adv-x="531"
d="M63 742h67v-315q20 37 63 60t92 23q97 0 152.5 -68.5t55.5 -189.5q0 -78 -26.5 -137.5t-74.5 -92t-111 -32.5q-49 0 -89 21.5t-60 57.5v-306h-69v979zM383.5 102.5q40.5 57.5 40.5 151.5t-39 146.5t-108 52.5q-64 0 -104.5 -43t-40.5 -111v-81q0 -80 38.5 -126.5
t105.5 -46.5t107.5 57.5z" />
    <glyph glyph-name="ydieresis" unicode="&#xff;" horiz-adv-x="448"
d="M437 500l-177 -504q-37 -103 -88.5 -152.5t-122.5 -49.5q-27 0 -48 6v52q17 -5 39 -5q53 0 89.5 39t73.5 136l-186 478h75l142 -403l127 403h76zM98.5 567q-13.5 13 -13.5 33q0 19 13.5 32t33.5 13t33 -13t13 -32t-13.5 -32.5t-32.5 -13.5q-20 0 -33.5 13zM294.5 567.5
q-13.5 13.5 -13.5 32.5t13.5 32t33.5 13t33.5 -13t13.5 -32q0 -20 -13.5 -33t-33.5 -13t-33.5 13.5z" />
    <glyph glyph-name="Amacron" unicode="&#x100;" horiz-adv-x="581"
d="M431 164h-281l-52 -164h-80l237 700h71l237 -700h-80zM412 225l-121 385l-122 -385h243zM139 814h302v-50h-302v50z" />
    <glyph glyph-name="amacron" unicode="&#x101;" horiz-adv-x="510"
d="M91 32.5q-47 42.5 -47 109.5q0 74 55.5 115.5t155.5 41.5h112v27q0 62 -31.5 94.5t-92.5 32.5q-45 0 -82.5 -19.5t-60.5 -56.5l-38 44q32 43 79 66t106 23q91 0 140.5 -46t49.5 -130v-240q0 -37 11 -94h-60q-7 22 -13 74h-2q-28 -40 -70 -62t-92 -22q-73 0 -120 42.5z
M292 62q34 16 54.5 43.5t20.5 58.5v82h-115q-67 0 -103.5 -27t-36.5 -77q0 -43 29 -69.5t77 -26.5q40 0 74 16zM101 614h302v-50h-302v50z" />
    <glyph glyph-name="Abreve" unicode="&#x102;" horiz-adv-x="581"
d="M431 164h-281l-52 -164h-80l237 700h71l237 -700h-80zM412 225l-121 385l-122 -385h243zM192 785q-37 31 -41 95h45q3 -36 26 -57t68 -21q41 0 65.5 19.5t28.5 58.5h45q-2 -59 -37 -92.5t-102 -33.5q-61 0 -98 31z" />
    <glyph glyph-name="abreve" unicode="&#x103;" horiz-adv-x="510"
d="M91 32.5q-47 42.5 -47 109.5q0 74 55.5 115.5t155.5 41.5h112v27q0 62 -31.5 94.5t-92.5 32.5q-45 0 -82.5 -19.5t-60.5 -56.5l-38 44q32 43 79 66t106 23q91 0 140.5 -46t49.5 -130v-240q0 -37 11 -94h-60q-7 22 -13 74h-2q-28 -40 -70 -62t-92 -22q-73 0 -120 42.5z
M292 62q34 16 54.5 43.5t20.5 58.5v82h-115q-67 0 -103.5 -27t-36.5 -77q0 -43 29 -69.5t77 -26.5q40 0 74 16zM154 585q-37 31 -41 95h45q3 -36 26 -57t68 -21q41 0 65.5 19.5t28.5 58.5h45q-2 -59 -37 -92.5t-102 -33.5q-61 0 -98 31z" />
    <glyph glyph-name="Aogonek" unicode="&#x104;" horiz-adv-x="581"
d="M590 -176q-16 -12 -37.5 -19.5t-46.5 -7.5q-43 0 -68.5 21.5t-25.5 64.5q0 72 81 117h-10l-52 164h-281l-52 -164h-80l237 700h71l237 -700h-21q-78 -55 -78 -107q0 -24 16.5 -38t48.5 -14q21 0 52 13zM412 225l-121 385l-122 -385h243z" />
    <glyph glyph-name="aogonek" unicode="&#x105;" horiz-adv-x="510"
d="M488 -176q-16 -12 -37.5 -19.5t-46.5 -7.5q-43 0 -68.5 21.5t-25.5 64.5q0 72 81 117h-3q-7 22 -13 74h-2q-28 -40 -70 -62t-92 -22q-73 0 -120 42.5t-47 109.5q0 74 55.5 115.5t155.5 41.5h112v27q0 62 -31.5 94.5t-92.5 32.5q-45 0 -82.5 -19.5t-60.5 -56.5l-38 44
q32 43 79 66t106 23q91 0 140.5 -46t49.5 -130v-240q0 -37 11 -94h-8q-78 -55 -78 -107q0 -24 16.5 -38t48.5 -14q21 0 52 13zM367 246h-115q-67 0 -103.5 -27t-36.5 -77q0 -43 29 -69.5t77 -26.5q40 0 74 16t54.5 43.5t20.5 58.5v82z" />
    <glyph glyph-name="Cacute" unicode="&#x106;" horiz-adv-x="576"
d="M175.5 33.5q-66.5 43.5 -102.5 124.5t-36 192q0 110 36.5 191t104.5 125t159 44q69 0 125 -27.5t85 -76.5l-41 -44q-56 86 -167 86q-108 0 -167.5 -78t-59.5 -220q0 -140 58.5 -219t162.5 -79q120 0 173 86l41 -44q-28 -49 -85 -76.5t-130 -27.5q-90 0 -156.5 43.5z
M384 894h74l-93 -140h-57z" />
    <glyph glyph-name="cacute" unicode="&#x107;" horiz-adv-x="467"
d="M97.5 58.5q-60.5 68.5 -60.5 191.5t60.5 191.5t168.5 68.5q61 0 108 -23.5t75 -69.5l-42 -39q-22 36 -59 55.5t-80 19.5q-76 0 -118.5 -53.5t-42.5 -149.5q0 -95 42.5 -149t118.5 -54q43 0 80 19.5t59 55.5l42 -39q-28 -46 -75 -69.5t-108 -23.5q-108 0 -168.5 68.5z
M319 694h74l-93 -140h-57z" />
    <glyph glyph-name="Ccircumflex" unicode="&#x108;" horiz-adv-x="576"
d="M175.5 33.5q-66.5 43.5 -102.5 124.5t-36 192q0 110 36.5 191t104.5 125t159 44q69 0 125 -27.5t85 -76.5l-41 -44q-56 86 -167 86q-108 0 -167.5 -78t-59.5 -220q0 -140 58.5 -219t162.5 -79q120 0 173 86l41 -44q-28 -49 -85 -76.5t-130 -27.5q-90 0 -156.5 43.5z
M307 890h53l103 -136h-60l-70 91l-70 -91h-60z" />
    <glyph glyph-name="ccircumflex" unicode="&#x109;" horiz-adv-x="467"
d="M97.5 58.5q-60.5 68.5 -60.5 191.5t60.5 191.5t168.5 68.5q61 0 108 -23.5t75 -69.5l-42 -39q-22 36 -59 55.5t-80 19.5q-76 0 -118.5 -53.5t-42.5 -149.5q0 -95 42.5 -149t118.5 -54q43 0 80 19.5t59 55.5l42 -39q-28 -46 -75 -69.5t-108 -23.5q-108 0 -168.5 68.5z
M242 690h53l103 -136h-60l-70 91l-70 -91h-60z" />
    <glyph glyph-name="Cdotaccent" unicode="&#x10a;" horiz-adv-x="576"
d="M175.5 33.5q-66.5 43.5 -102.5 124.5t-36 192q0 110 36.5 191t104.5 125t159 44q69 0 125 -27.5t85 -76.5l-41 -44q-56 86 -167 86q-108 0 -167.5 -78t-59.5 -220q0 -140 58.5 -219t162.5 -79q120 0 173 86l41 -44q-28 -49 -85 -76.5t-130 -27.5q-90 0 -156.5 43.5z
M299.5 767q-13.5 13 -13.5 33q0 19 13.5 32t33.5 13t33.5 -13t13.5 -32q0 -20 -13.5 -33t-33.5 -13t-33.5 13z" />
    <glyph glyph-name="cdotaccent" unicode="&#x10b;" horiz-adv-x="467"
d="M97.5 58.5q-60.5 68.5 -60.5 191.5t60.5 191.5t168.5 68.5q61 0 108 -23.5t75 -69.5l-42 -39q-22 36 -59 55.5t-80 19.5q-76 0 -118.5 -53.5t-42.5 -149.5q0 -95 42.5 -149t118.5 -54q43 0 80 19.5t59 55.5l42 -39q-28 -46 -75 -69.5t-108 -23.5q-108 0 -168.5 68.5z
M234.5 567q-13.5 13 -13.5 33q0 19 13.5 32t33.5 13t33.5 -13t13.5 -32q0 -20 -13.5 -33t-33.5 -13t-33.5 13z" />
    <glyph glyph-name="Ccaron" unicode="&#x10c;" horiz-adv-x="576"
d="M175.5 33.5q-66.5 43.5 -102.5 124.5t-36 192q0 110 36.5 191t104.5 125t159 44q69 0 125 -27.5t85 -76.5l-41 -44q-56 86 -167 86q-108 0 -167.5 -78t-59.5 -220q0 -140 58.5 -219t162.5 -79q120 0 173 86l41 -44q-28 -49 -85 -76.5t-130 -27.5q-90 0 -156.5 43.5z
M203 890h60l70 -92l70 92h60l-103 -136h-53z" />
    <glyph glyph-name="ccaron" unicode="&#x10d;" horiz-adv-x="467"
d="M97.5 58.5q-60.5 68.5 -60.5 191.5t60.5 191.5t168.5 68.5q61 0 108 -23.5t75 -69.5l-42 -39q-22 36 -59 55.5t-80 19.5q-76 0 -118.5 -53.5t-42.5 -149.5q0 -95 42.5 -149t118.5 -54q43 0 80 19.5t59 55.5l42 -39q-28 -46 -75 -69.5t-108 -23.5q-108 0 -168.5 68.5z
M138 690h60l70 -92l70 92h60l-103 -136h-53z" />
    <glyph glyph-name="Dcaron" unicode="&#x10e;" horiz-adv-x="618"
d="M86 700h215q137 0 203 -82.5t66 -253.5q0 -129 -30.5 -209t-95.5 -117.5t-171 -37.5h-187v700zM289 62q108 0 158 72.5t50 229.5q0 143 -47 208.5t-151 65.5h-139v-576h129zM180 890h60l70 -92l70 92h60l-103 -136h-53z" />
    <glyph glyph-name="dcaron" unicode="&#x10f;" horiz-adv-x="635"
d="M93 62q-56 72 -56 197q0 116 57 183.5t154 67.5q48 0 87 -21t66 -62h2v315h68v-618q0 -89 3 -124h-62q-3 42 -3 84h-2q-23 -43 -66.5 -68.5t-94.5 -25.5q-97 0 -153 72zM361 89q41 42 41 111v87q0 77 -40.5 122.5t-107.5 45.5q-69 0 -108 -52.5t-39 -145.5q0 -98 39 -154
t107 -56q67 0 108 42zM619 743q14 -17 14 -44q0 -31 -15.5 -66.5t-41.5 -63.5l-32 21q3 5 12.5 19t15.5 27t9 25h-6q-20 0 -33 13.5t-13 34.5q0 23 13 37t36 14q27 0 41 -17z" />
    <glyph glyph-name="Dcroat" unicode="&#x110;" horiz-adv-x="619"
d="M505 617.5q66 -82.5 66 -253.5q0 -129 -30.5 -209t-95.5 -117.5t-171 -37.5h-187v308h-79v59h79v333h215q137 0 203 -82.5zM448 134.5q50 72.5 50 229.5q0 143 -47 208.5t-151 65.5h-139v-271h221v-59h-221v-246h129q108 0 158 72.5z" />
    <glyph glyph-name="dcroat" unicode="&#x111;" horiz-adv-x="550"
d="M471 606v-482q0 -89 3 -124h-62q-3 42 -3 84h-2q-23 -43 -66.5 -68.5t-94.5 -25.5q-97 0 -153 72t-56 197q0 116 57 183.5t154 67.5q48 0 87 -21t66 -62h2v179h-149v49h149v87h68v-87h56v-49h-56zM402 287q0 77 -40.5 122.5t-107.5 45.5q-69 0 -108 -52.5t-39 -145.5
q0 -98 39 -154t107 -56q67 0 108 42t41 111v87z" />
    <glyph glyph-name="Emacron" unicode="&#x112;" horiz-adv-x="546"
d="M86 700h404v-62h-330v-238h295v-63h-295v-275h330v-62h-404v700zM142 814h302v-50h-302v50z" />
    <glyph glyph-name="emacron" unicode="&#x113;" horiz-adv-x="510"
d="M472 222h-364q6 -83 47.5 -128t112.5 -45q45 0 82 19.5t61 54.5l41 -39q-29 -45 -77.5 -69.5t-108.5 -24.5q-107 0 -167.5 68.5t-60.5 190.5t59.5 191.5t164.5 69.5q99 0 154.5 -67t55.5 -187v-34zM408 284q0 78 -40 123.5t-108 45.5t-107.5 -46t-44.5 -131h300v8z
M113 614h302v-50h-302v50z" />
    <glyph glyph-name="Ebreve" unicode="&#x114;" horiz-adv-x="546"
d="M86 700h404v-62h-330v-238h295v-63h-295v-275h330v-62h-404v700zM195 785q-37 31 -41 95h45q3 -36 26 -57t68 -21q41 0 65.5 19.5t28.5 58.5h45q-2 -59 -37 -92.5t-102 -33.5q-61 0 -98 31z" />
    <glyph glyph-name="ebreve" unicode="&#x115;" horiz-adv-x="510"
d="M472 222h-364q6 -83 47.5 -128t112.5 -45q45 0 82 19.5t61 54.5l41 -39q-29 -45 -77.5 -69.5t-108.5 -24.5q-107 0 -167.5 68.5t-60.5 190.5t59.5 191.5t164.5 69.5q99 0 154.5 -67t55.5 -187v-34zM408 284q0 78 -40 123.5t-108 45.5t-107.5 -46t-44.5 -131h300v8z
M166 585q-37 31 -41 95h45q3 -36 26 -57t68 -21q41 0 65.5 19.5t28.5 58.5h45q-2 -59 -37 -92.5t-102 -33.5q-61 0 -98 31z" />
    <glyph glyph-name="Edotaccent" unicode="&#x116;" horiz-adv-x="546"
d="M86 700h404v-62h-330v-238h295v-63h-295v-275h330v-62h-404v700zM259.5 767q-13.5 13 -13.5 33q0 19 13.5 32t33.5 13t33.5 -13t13.5 -32q0 -20 -13.5 -33t-33.5 -13t-33.5 13z" />
    <glyph glyph-name="edotaccent" unicode="&#x117;" horiz-adv-x="510"
d="M472 222h-364q6 -83 47.5 -128t112.5 -45q45 0 82 19.5t61 54.5l41 -39q-29 -45 -77.5 -69.5t-108.5 -24.5q-107 0 -167.5 68.5t-60.5 190.5t59.5 191.5t164.5 69.5q99 0 154.5 -67t55.5 -187v-34zM408 284q0 78 -40 123.5t-108 45.5t-107.5 -46t-44.5 -131h300v8z
M230.5 567q-13.5 13 -13.5 33q0 19 13.5 32t33.5 13t33.5 -13t13.5 -32q0 -20 -13.5 -33t-33.5 -13t-33.5 13z" />
    <glyph glyph-name="Eogonek" unicode="&#x118;" horiz-adv-x="546"
d="M538 -176q-16 -12 -37.5 -19.5t-46.5 -7.5q-43 0 -68.5 21.5t-25.5 64.5q0 72 81 117h-355v700h404v-62h-330v-238h295v-63h-295v-275h330v-62q-78 -55 -78 -107q0 -24 16.5 -38t48.5 -14q21 0 52 13z" />
    <glyph glyph-name="eogonek" unicode="&#x119;" horiz-adv-x="510"
d="M472 222h-364q6 -83 47.5 -128t112.5 -45q45 0 82 19.5t61 54.5l41 -39q-23 -36 -61 -60q-47 -42 -47 -83q0 -24 16.5 -38t48.5 -14q21 0 52 13l9 -30q-35 -27 -85 -27q-43 0 -68 21.5t-25 64.5q0 34 19 63q-19 -4 -45 -4q-107 0 -167.5 68.5t-60.5 190.5t59.5 191.5
t164.5 69.5q99 0 154.5 -67t55.5 -187v-34zM408 284q0 78 -40 123.5t-108 45.5t-107.5 -46t-44.5 -131h300v8z" />
    <glyph glyph-name="Ecaron" unicode="&#x11a;" horiz-adv-x="546"
d="M86 700h404v-62h-330v-238h295v-63h-295v-275h330v-62h-404v700zM163 890h60l70 -92l70 92h60l-103 -136h-53z" />
    <glyph glyph-name="ecaron" unicode="&#x11b;" horiz-adv-x="510"
d="M472 222h-364q6 -83 47.5 -128t112.5 -45q45 0 82 19.5t61 54.5l41 -39q-29 -45 -77.5 -69.5t-108.5 -24.5q-107 0 -167.5 68.5t-60.5 190.5t59.5 191.5t164.5 69.5q99 0 154.5 -67t55.5 -187v-34zM408 284q0 78 -40 123.5t-108 45.5t-107.5 -46t-44.5 -131h300v8z
M134 690h60l70 -92l70 92h60l-103 -136h-53z" />
    <glyph glyph-name="Gcircumflex" unicode="&#x11c;" horiz-adv-x="633"
d="M567 356v-356h-46l-16 48q-33 -28 -78.5 -43t-97.5 -15q-89 0 -155 43.5t-101.5 125t-35.5 191.5q0 109 37 190.5t104.5 125.5t158.5 44q74 0 132 -27.5t86 -76.5l-40 -43q-26 41 -72 63t-106 22q-106 0 -165.5 -79t-59.5 -219q0 -142 59 -221t164 -79q48 0 89.5 15.5
t69.5 43.5v190h-172v57h245zM311 890h53l103 -136h-60l-70 91l-70 -91h-60z" />
    <glyph glyph-name="gcircumflex" unicode="&#x11d;" horiz-adv-x="538"
d="M471 500v-485q0 -118 -57.5 -179t-167.5 -61q-99 0 -177 43l23 53q39 -19 75 -27.5t77 -8.5q82 0 122 46.5t40 143.5v50q-22 -39 -63.5 -61.5t-94.5 -22.5q-98 0 -154.5 71.5t-56.5 196.5q0 116 56.5 183.5t153.5 67.5q51 0 91.5 -22t63.5 -63h2l10 75h57zM402 284
q0 79 -39.5 125t-106.5 46q-69 0 -109 -53t-40 -145q0 -98 39.5 -153.5t109.5 -55.5q68 0 107 41.5t39 113.5v81zM230 690h53l103 -136h-60l-70 91l-70 -91h-60z" />
    <glyph glyph-name="Gbreve" unicode="&#x11e;" horiz-adv-x="633"
d="M567 356v-356h-46l-16 48q-33 -28 -78.5 -43t-97.5 -15q-89 0 -155 43.5t-101.5 125t-35.5 191.5q0 109 37 190.5t104.5 125.5t158.5 44q74 0 132 -27.5t86 -76.5l-40 -43q-26 41 -72 63t-106 22q-106 0 -165.5 -79t-59.5 -219q0 -142 59 -221t164 -79q48 0 89.5 15.5
t69.5 43.5v190h-172v57h245zM239 785q-37 31 -41 95h45q3 -36 26 -57t68 -21q41 0 65.5 19.5t28.5 58.5h45q-2 -59 -37 -92.5t-102 -33.5q-61 0 -98 31z" />
    <glyph glyph-name="gbreve" unicode="&#x11f;" horiz-adv-x="538"
d="M471 500v-485q0 -118 -57.5 -179t-167.5 -61q-99 0 -177 43l23 53q39 -19 75 -27.5t77 -8.5q82 0 122 46.5t40 143.5v50q-22 -39 -63.5 -61.5t-94.5 -22.5q-98 0 -154.5 71.5t-56.5 196.5q0 116 56.5 183.5t153.5 67.5q51 0 91.5 -22t63.5 -63h2l10 75h57zM402 284
q0 79 -39.5 125t-106.5 46q-69 0 -109 -53t-40 -145q0 -98 39.5 -153.5t109.5 -55.5q68 0 107 41.5t39 113.5v81zM158 585q-37 31 -41 95h45q3 -36 26 -57t68 -21q41 0 65.5 19.5t28.5 58.5h45q-2 -59 -37 -92.5t-102 -33.5q-61 0 -98 31z" />
    <glyph glyph-name="Gdotaccent" unicode="&#x120;" horiz-adv-x="633"
d="M567 356v-356h-46l-16 48q-33 -28 -78.5 -43t-97.5 -15q-89 0 -155 43.5t-101.5 125t-35.5 191.5q0 109 37 190.5t104.5 125.5t158.5 44q74 0 132 -27.5t86 -76.5l-40 -43q-26 41 -72 63t-106 22q-106 0 -165.5 -79t-59.5 -219q0 -142 59 -221t164 -79q48 0 89.5 15.5
t69.5 43.5v190h-172v57h245zM303.5 767q-13.5 13 -13.5 33q0 19 13.5 32t33.5 13t33.5 -13t13.5 -32q0 -20 -13.5 -33t-33.5 -13t-33.5 13z" />
    <glyph glyph-name="gdotaccent" unicode="&#x121;" horiz-adv-x="538"
d="M471 500v-485q0 -118 -57.5 -179t-167.5 -61q-99 0 -177 43l23 53q39 -19 75 -27.5t77 -8.5q82 0 122 46.5t40 143.5v50q-22 -39 -63.5 -61.5t-94.5 -22.5q-98 0 -154.5 71.5t-56.5 196.5q0 116 56.5 183.5t153.5 67.5q51 0 91.5 -22t63.5 -63h2l10 75h57zM402 284
q0 79 -39.5 125t-106.5 46q-69 0 -109 -53t-40 -145q0 -98 39.5 -153.5t109.5 -55.5q68 0 107 41.5t39 113.5v81zM222.5 567q-13.5 13 -13.5 33q0 19 13.5 32t33.5 13t33.5 -13t13.5 -32q0 -20 -13.5 -33t-33.5 -13t-33.5 13z" />
    <glyph glyph-name="uni0122" unicode="&#x122;" horiz-adv-x="633"
d="M567 356v-356h-46l-16 48q-33 -28 -78.5 -43t-97.5 -15q-89 0 -155 43.5t-101.5 125t-35.5 191.5q0 109 37 190.5t104.5 125.5t158.5 44q74 0 132 -27.5t86 -76.5l-40 -43q-26 41 -72 63t-106 22q-106 0 -165.5 -79t-59.5 -219q0 -142 59 -221t164 -79q48 0 89.5 15.5
t69.5 43.5v190h-172v57h245zM378 -88.5q14 -16.5 14 -44.5q0 -30 -16 -66t-42 -64l-31 21q3 4 12 18.5t15.5 28t9.5 25.5h-6q-20 0 -33 13t-13 35t13 36t36 14q27 0 41 -16.5z" />
    <glyph glyph-name="uni0123" unicode="&#x123;" horiz-adv-x="538"
d="M471 500v-485q0 -118 -57.5 -179t-167.5 -61q-99 0 -177 43l23 53q39 -19 75 -27.5t77 -8.5q82 0 122 46.5t40 143.5v50q-22 -39 -63.5 -61.5t-94.5 -22.5q-98 0 -154.5 71.5t-56.5 196.5q0 116 56.5 183.5t153.5 67.5q51 0 91.5 -22t63.5 -63h2l10 75h57zM402 284
q0 79 -39.5 125t-106.5 46q-69 0 -109 -53t-40 -145q0 -98 39.5 -153.5t109.5 -55.5q68 0 107 41.5t39 113.5v81zM293.5 639q12.5 -13 12.5 -34q0 -23 -13 -37t-35 -14q-27 0 -41.5 17t-14.5 44q0 31 16 66.5t42 63.5l31 -21q-15 -22 -23.5 -38t-13.5 -34h7q20 0 32.5 -13z
" />
    <glyph glyph-name="Hcircumflex" unicode="&#x124;" horiz-adv-x="674"
d="M85 700h74v-316h356v316h74v-700h-74v322h-356v-322h-74v700zM311 890h53l103 -136h-60l-70 91l-70 -91h-60z" />
    <glyph glyph-name="hcircumflex" unicode="&#x125;" horiz-adv-x="555"
d="M66 742h69v-329q24 44 70.5 70.5t101.5 26.5q88 0 135 -58t47 -167v-285h-69v286q0 82 -31.5 125.5t-90.5 43.5q-46 0 -83 -23.5t-58.5 -65t-21.5 -93.5v-273h-69v742zM170 932h53l103 -136h-60l-70 91l-70 -91h-60z" />
    <glyph glyph-name="Hbar" unicode="&#x126;" horiz-adv-x="688"
d="M656 503h-60v-503h-74v322h-356v-322h-74v503h-60v50h60v147h74v-147h356v147h74v-147h60v-50zM522 503h-356v-119h356v119z" />
    <glyph glyph-name="hbar" unicode="&#x127;" horiz-adv-x="555"
d="M442 452q47 -58 47 -167v-285h-69v286q0 82 -31.5 125.5t-90.5 43.5q-46 0 -83 -23.5t-58.5 -65t-21.5 -93.5v-273h-69v606h-57v49h57v87h69v-87h143v-49h-143v-193q24 44 70.5 70.5t101.5 26.5q88 0 135 -58z" />
    <glyph glyph-name="Itilde" unicode="&#x128;" horiz-adv-x="284"
d="M105 700h74v-700h-74v700zM24 819.5q20 26.5 54 26.5q18 0 34.5 -7t38.5 -20q33 -20 48 -20q28 0 32 51h44q-1 -41 -22 -68.5t-55 -27.5q-18 0 -35 7.5t-38 20.5q-12 7 -24 13t-21 6q-13 0 -22 -12.5t-10 -34.5h-45q1 39 21 65.5z" />
    <glyph glyph-name="itilde" unicode="&#x129;" horiz-adv-x="244"
d="M87 500h70v-500h-70v500zM3 619.5q20 26.5 54 26.5q18 0 34.5 -7t38.5 -20q33 -20 48 -20q28 0 32 51h44q-1 -41 -22 -68.5t-55 -27.5q-18 0 -35 7.5t-38 20.5q-12 7 -24 13t-21 6q-13 0 -22 -12.5t-10 -34.5h-45q1 39 21 65.5z" />
    <glyph glyph-name="Imacron" unicode="&#x12a;" horiz-adv-x="284"
d="M105 700h74v-700h-74v700zM-8 814h302v-50h-302v50z" />
    <glyph glyph-name="imacron" unicode="&#x12b;" horiz-adv-x="244"
d="M87 500h70v-500h-70v500zM-29 614h302v-50h-302v50z" />
    <glyph glyph-name="Ibreve" unicode="&#x12c;" horiz-adv-x="284"
d="M105 700h74v-700h-74v700zM45 785q-37 31 -41 95h45q3 -36 26 -57t68 -21q41 0 65.5 19.5t28.5 58.5h45q-2 -59 -37 -92.5t-102 -33.5q-61 0 -98 31z" />
    <glyph glyph-name="ibreve" unicode="&#x12d;" horiz-adv-x="244"
d="M87 500h70v-500h-70v500zM24 585q-37 31 -41 95h45q3 -36 26 -57t68 -21q41 0 65.5 19.5t28.5 58.5h45q-2 -59 -37 -92.5t-102 -33.5q-61 0 -98 31z" />
    <glyph glyph-name="Iogonek" unicode="&#x12e;" horiz-adv-x="284"
d="M214 -176q-16 -12 -37.5 -19.5t-46.5 -7.5q-43 0 -68 21.5t-25 64.5q0 72 80 117h-12v700h74v-700h-12q-78 -54 -78 -107q0 -24 16 -38t48 -14q22 0 53 13z" />
    <glyph glyph-name="iogonek" unicode="&#x12f;" horiz-adv-x="236"
d="M79.5 611q-14.5 14 -14.5 37q0 24 14.5 38t38.5 14t38.5 -14t14.5 -38q0 -23 -14.5 -37t-38.5 -14t-38.5 14zM189 -176q-16 -12 -37.5 -19.5t-46.5 -7.5q-43 0 -68.5 21.5t-25.5 64.5q0 72 81 117h-9v500h70v-500h-12q-78 -55 -78 -107q0 -24 16.5 -38t48.5 -14
q21 0 52 13z" />
    <glyph glyph-name="Idotaccent" unicode="&#x130;" horiz-adv-x="284"
d="M105 700h74v-700h-74v700zM109.5 767q-13.5 13 -13.5 33q0 19 13.5 32t33.5 13t33.5 -13t13.5 -32q0 -20 -13.5 -33t-33.5 -13t-33.5 13z" />
    <glyph glyph-name="dotlessi" unicode="&#x131;" horiz-adv-x="244"
d="M87 500h70v-500h-70v500z" />
    <glyph glyph-name="IJ" unicode="&#x132;" horiz-adv-x="707"
d="M105 700h74v-700h-74v700zM353.5 2.5q-37.5 12.5 -61.5 32.5l28 55q21 -17 50 -27.5t58 -10.5q63 0 91.5 43.5t28.5 138.5v466h74v-477q0 -119 -46.5 -176t-145.5 -57q-39 0 -76.5 12.5z" />
    <glyph glyph-name="ij" unicode="&#x133;" horiz-adv-x="473"
d="M79.5 611q-14.5 14 -14.5 37q0 24 14.5 38t38.5 14t38.5 -14t14.5 -38q0 -23 -14.5 -37t-38.5 -14t-38.5 14zM83 500h70v-500h-70v500zM323 611q-15 14 -15 37t15 37.5t39 14.5q23 0 37.5 -14.5t14.5 -37.5t-14.5 -37t-37.5 -14q-24 0 -39 14zM194 -182l2 54q12 -1 32 -1
q58 0 80 34.5t22 104.5v490h69v-495q0 -192 -152 -192q-21 0 -53 5z" />
    <glyph glyph-name="Jcircumflex" unicode="&#x134;" horiz-adv-x="423"
d="M69.5 2.5q-37.5 12.5 -61.5 32.5l28 55q21 -17 50 -27.5t58 -10.5q63 0 91.5 43.5t28.5 138.5v466h74v-477q0 -119 -46.5 -176t-145.5 -57q-39 0 -76.5 12.5zM190 890h53l103 -136h-60l-70 91l-70 -91h-60z" />
    <glyph glyph-name="jcircumflex" unicode="&#x135;" horiz-adv-x="237"
d="M-42 -182l2 54q12 -1 32 -1q56 0 77 34.5t21 104.5v490h70v-495q0 -94 -36 -143t-114 -49q-20 0 -52 5zM99 690h53l103 -136h-60l-70 91l-70 -91h-60z" />
    <glyph glyph-name="uni0136" unicode="&#x136;" horiz-adv-x="588"
d="M499 0l-236 363l-104 -123v-240h-74v700h74v-361l304 361h85l-237 -280l267 -420h-79zM337 -88.5q14 -16.5 14 -44.5q0 -30 -16 -66t-42 -64l-31 21q3 4 12 18.5t15.5 28t9.5 25.5h-6q-20 0 -33 13t-13 35t13 36t36 14q27 0 41 -16.5z" />
    <glyph glyph-name="uni0137" unicode="&#x137;" horiz-adv-x="472"
d="M384 0l-170 259l-79 -80v-179h-69v742h69v-479l234 237h83l-191 -194l203 -306h-80zM278 -88.5q14 -16.5 14 -44.5q0 -30 -16 -66t-42 -64l-31 21q3 4 12 18.5t15.5 28t9.5 25.5h-6q-20 0 -33 13t-13 35t13 36t36 14q27 0 41 -16.5z" />
    <glyph glyph-name="kgreenlandic" unicode="&#x138;" horiz-adv-x="472"
d="M384 0l-165 256l-84 -88v-168h-69v500h69v-247l234 247h83l-187 -196l199 -304h-80z" />
    <glyph glyph-name="Lacute" unicode="&#x139;" horiz-adv-x="537"
d="M85 700h74v-638h341v-62h-415v700zM173 894h74l-93 -140h-57z" />
    <glyph glyph-name="lacute" unicode="&#x13a;" horiz-adv-x="289"
d="M75 115v627h70v-626q0 -40 11.5 -56t40.5 -16q20 0 48 11l12 -43q-36 -22 -81 -22q-101 0 -101 125zM161 936h74l-93 -140h-57z" />
    <glyph glyph-name="uni013B" unicode="&#x13b;" horiz-adv-x="537"
d="M85 700h74v-638h341v-62h-415v700zM333 -88.5q14 -16.5 14 -44.5q0 -30 -16 -66t-42 -64l-31 21q3 4 12 18.5t15.5 28t9.5 25.5h-6q-20 0 -33 13t-13 35t13 36t36 14q27 0 41 -16.5z" />
    <glyph glyph-name="uni013C" unicode="&#x13c;" horiz-adv-x="289"
d="M75 115v627h70v-626q0 -40 11.5 -56t40.5 -16q20 0 48 11l12 -43q-36 -22 -81 -22q-101 0 -101 125zM215 -88.5q14 -16.5 14 -44.5q0 -30 -16 -66t-42 -64l-31 21q3 4 12 18.5t15.5 28t9.5 25.5h-6q-20 0 -33 13t-13 35t13 36t36 14q27 0 41 -16.5z" />
    <glyph glyph-name="Lcaron" unicode="&#x13d;" horiz-adv-x="544"
d="M85 700h74v-638h341v-62h-415v700zM448 693q14 -17 14 -44q0 -31 -15.5 -66.5t-41.5 -63.5l-32 21q3 5 12.5 19t15.5 27t9 25h-6q-20 0 -33 13.5t-13 34.5q0 23 13 37t36 14q27 0 41 -17z" />
    <glyph glyph-name="lcaron" unicode="&#x13e;" horiz-adv-x="320"
d="M75 115v627h70v-626q0 -40 11.5 -56t40.5 -16q20 0 48 11l12 -43q-36 -22 -81 -22q-101 0 -101 125zM306 725q14 -17 14 -44q0 -31 -15.5 -66.5t-41.5 -63.5l-32 21q3 5 12.5 19t15.5 27t9 25h-6q-20 0 -33 13.5t-13 34.5q0 23 13 37t36 14q27 0 41 -17z" />
    <glyph glyph-name="Ldot" unicode="&#x13f;" horiz-adv-x="537"
d="M85 700h74v-638h341v-62h-415v700zM285 306.5q-16 16.5 -16 41.5q0 26 16 42.5t40 16.5t40 -16.5t16 -42.5q0 -25 -16 -41.5t-40 -16.5t-40 16.5z" />
    <glyph glyph-name="ldot" unicode="&#x140;" horiz-adv-x="319"
d="M75 115v627h70v-626q0 -40 11.5 -56t40.5 -16q20 0 48 11l12 -43q-36 -22 -81 -22q-101 0 -101 125zM213 277.5q-16 16.5 -16 41.5q0 26 16 42.5t40 16.5t40 -16.5t16 -42.5q0 -25 -16 -41.5t-40 -16.5t-40 16.5z" />
    <glyph glyph-name="Lslash" unicode="&#x141;" horiz-adv-x="537"
d="M500 62v-62h-415v285l-63 -27v60l63 27v355h74v-323l182 79v-63l-182 -77v-254h341z" />
    <glyph glyph-name="lslash" unicode="&#x142;" horiz-adv-x="290"
d="M257 12q-36 -22 -81 -22q-101 0 -101 125v223l-52 -22v56l52 22v348h70v-317l105 45v-56l-105 -45v-253q0 -40 11.5 -56t40.5 -16q20 0 48 11z" />
    <glyph glyph-name="Nacute" unicode="&#x143;" horiz-adv-x="677"
d="M591 700v-700h-75l-357 588v-588h-74v700h82l351 -581v581h73zM389 894h74l-93 -140h-57z" />
    <glyph glyph-name="nacute" unicode="&#x144;" horiz-adv-x="545"
d="M65 376q0 88 -3 124h63q4 -34 4 -95h3q22 48 69 76.5t103 28.5q87 0 131 -57t44 -169v-284h-69v285q0 85 -29 126.5t-88 41.5q-45 0 -81 -23.5t-56.5 -64.5t-20.5 -92v-273h-70v376zM324 694h74l-93 -140h-57z" />
    <glyph glyph-name="uni0145" unicode="&#x145;" horiz-adv-x="677"
d="M591 700v-700h-75l-357 588v-588h-74v700h82l351 -581v581h73zM379 -88.5q14 -16.5 14 -44.5q0 -30 -16 -66t-42 -64l-31 21q3 4 12 18.5t15.5 28t9.5 25.5h-6q-20 0 -33 13t-13 35t13 36t36 14q27 0 41 -16.5z" />
    <glyph glyph-name="uni0146" unicode="&#x146;" horiz-adv-x="545"
d="M65 376q0 88 -3 124h63q4 -34 4 -95h3q22 48 69 76.5t103 28.5q87 0 131 -57t44 -169v-284h-69v285q0 85 -29 126.5t-88 41.5q-45 0 -81 -23.5t-56.5 -64.5t-20.5 -92v-273h-70v376zM314 -88.5q14 -16.5 14 -44.5q0 -30 -16 -66t-42 -64l-31 21q3 4 12 18.5t15.5 28
t9.5 25.5h-6q-20 0 -33 13t-13 35t13 36t36 14q27 0 41 -16.5z" />
    <glyph glyph-name="Ncaron" unicode="&#x147;" horiz-adv-x="677"
d="M591 700v-700h-75l-357 588v-588h-74v700h82l351 -581v581h73zM208 890h60l70 -92l70 92h60l-103 -136h-53z" />
    <glyph glyph-name="ncaron" unicode="&#x148;" horiz-adv-x="545"
d="M65 376q0 88 -3 124h63q4 -34 4 -95h3q22 48 69 76.5t103 28.5q87 0 131 -57t44 -169v-284h-69v285q0 85 -29 126.5t-88 41.5q-45 0 -81 -23.5t-56.5 -64.5t-20.5 -92v-273h-70v376zM143 690h60l70 -92l70 92h60l-103 -136h-53z" />
    <glyph glyph-name="napostrophe" unicode="&#x149;" horiz-adv-x="627"
d="M102 693q14 -17 14 -44q0 -31 -15.5 -66.5t-41.5 -63.5l-32 21q3 5 12.5 19t15.5 27t9 25h-6q-20 0 -33 13.5t-13 34.5q0 23 13 37t36 14q27 0 41 -17zM147 376q0 88 -3 124h63q4 -34 4 -95h3q22 48 69 76.5t103 28.5q87 0 131 -57t44 -169v-284h-69v285q0 85 -29 126.5
t-88 41.5q-45 0 -81 -23.5t-56.5 -64.5t-20.5 -92v-273h-70v376z" />
    <glyph glyph-name="Eng" unicode="&#x14a;" horiz-adv-x="677"
d="M85 700h82l351 -580v580h73v-731q0 -116 -46 -172t-143 -56q-37 0 -72 11t-57 30l25 51q20 -16 47.5 -25.5t54.5 -9.5q62 0 90.5 42t28.5 134v26l-360 589v-589h-74v700z" />
    <glyph glyph-name="eng" unicode="&#x14b;" horiz-adv-x="545"
d="M277 -182l1 54q10 -1 33 -1q53 0 76 31.5t23 106.5v276q0 85 -29 126.5t-88 41.5q-45 0 -81 -23.5t-56.5 -64.5t-20.5 -92v-273h-70v376q0 88 -3 124h63q4 -34 4 -95h3q22 48 69 76.5t103 28.5q87 0 131 -57t44 -169v-285q-1 -186 -149 -186q-26 0 -53 5z" />
    <glyph glyph-name="Omacron" unicode="&#x14c;" horiz-adv-x="655"
d="M174 34q-66 44 -101.5 125t-35.5 191t35.5 191t101.5 125t154 44t153.5 -44t101 -125t35.5 -191t-35.5 -191t-101 -125t-153.5 -44t-154 44zM443 87.5q49 36.5 75 104t26 158.5t-26 158.5t-75 104t-115 36.5t-115 -36.5t-75.5 -104t-26.5 -158.5t26.5 -158.5t75.5 -104
t115 -36.5t115 36.5zM177 814h302v-50h-302v50z" />
    <glyph glyph-name="omacron" unicode="&#x14d;" horiz-adv-x="550"
d="M149.5 22q-53.5 32 -82.5 91t-29 137t29 137t82.5 91t125.5 32t125.5 -32t82.5 -91t29 -137t-29 -137t-82.5 -91t-125.5 -32t-125.5 32zM397.5 100.5q45.5 55.5 45.5 149.5t-45.5 149.5t-122.5 55.5t-122.5 -55.5t-45.5 -149.5t45.5 -149.5t122.5 -55.5t122.5 55.5z
M124 614h302v-50h-302v50z" />
    <glyph glyph-name="Obreve" unicode="&#x14e;" horiz-adv-x="655"
d="M174 34q-66 44 -101.5 125t-35.5 191t35.5 191t101.5 125t154 44t153.5 -44t101 -125t35.5 -191t-35.5 -191t-101 -125t-153.5 -44t-154 44zM443 87.5q49 36.5 75 104t26 158.5t-26 158.5t-75 104t-115 36.5t-115 -36.5t-75.5 -104t-26.5 -158.5t26.5 -158.5t75.5 -104
t115 -36.5t115 36.5zM230 785q-37 31 -41 95h45q3 -36 26 -57t68 -21q41 0 65.5 19.5t28.5 58.5h45q-2 -59 -37 -92.5t-102 -33.5q-61 0 -98 31z" />
    <glyph glyph-name="obreve" unicode="&#x14f;" horiz-adv-x="550"
d="M149.5 22q-53.5 32 -82.5 91t-29 137t29 137t82.5 91t125.5 32t125.5 -32t82.5 -91t29 -137t-29 -137t-82.5 -91t-125.5 -32t-125.5 32zM397.5 100.5q45.5 55.5 45.5 149.5t-45.5 149.5t-122.5 55.5t-122.5 -55.5t-45.5 -149.5t45.5 -149.5t122.5 -55.5t122.5 55.5z
M177 585q-37 31 -41 95h45q3 -36 26 -57t68 -21q41 0 65.5 19.5t28.5 58.5h45q-2 -59 -37 -92.5t-102 -33.5q-61 0 -98 31z" />
    <glyph glyph-name="Ohungarumlaut" unicode="&#x150;" horiz-adv-x="655"
d="M174 34q-66 44 -101.5 125t-35.5 191t35.5 191t101.5 125t154 44t153.5 -44t101 -125t35.5 -191t-35.5 -191t-101 -125t-153.5 -44t-154 44zM443 87.5q49 36.5 75 104t26 158.5t-26 158.5t-75 104t-115 36.5t-115 -36.5t-75.5 -104t-26.5 -158.5t26.5 -158.5t75.5 -104
t115 -36.5t115 36.5zM294 894h73l-93 -140h-57zM424 894h73l-93 -140h-57z" />
    <glyph glyph-name="ohungarumlaut" unicode="&#x151;" horiz-adv-x="550"
d="M243 682h68l-87 -131h-53zM365 682h68l-87 -131h-53zM149.5 22q-53.5 32 -82.5 91t-29 137t29 137t82.5 91t125.5 32t125.5 -32t82.5 -91t29 -137t-29 -137t-82.5 -91t-125.5 -32t-125.5 32zM397.5 100.5q45.5 55.5 45.5 149.5t-45.5 149.5t-122.5 55.5t-122.5 -55.5
t-45.5 -149.5t45.5 -149.5t122.5 -55.5t122.5 55.5z" />
    <glyph glyph-name="OE" unicode="&#x152;" horiz-adv-x="892"
d="M548 638v-239h254v-59h-254v-278h288v-62h-362v78q-66 -88 -183 -88q-124 0 -189 92.5t-65 267.5t65 267.5t189 92.5q117 0 183 -88v78h362v-62h-288zM427.5 127q46.5 77 46.5 223t-46.5 223t-135.5 77q-90 0 -135.5 -75.5t-45.5 -224.5t45.5 -224.5t135.5 -75.5
q89 0 135.5 77z" />
    <glyph glyph-name="oe" unicode="&#x153;" horiz-adv-x="869"
d="M831 240h-363q2 -91 44 -141t115 -50q45 0 81.5 19t60.5 55l41 -39q-29 -44 -77.5 -69t-106.5 -25q-65 0 -114 27t-77 78q-25 -51 -70 -78t-108 -27q-105 0 -162 67.5t-57 192.5t56.5 192.5t162.5 67.5q64 0 109 -27t69 -79q28 51 76 78.5t112 27.5q100 0 154 -62.5
t54 -176.5v-31zM364 96q36 52 36 154q0 206 -143 206q-73 0 -111.5 -52.5t-38.5 -153.5t38.5 -153.5t111.5 -52.5q71 0 107 52zM763 301q0 73 -37.5 112.5t-105.5 39.5q-64 0 -103 -42t-47 -119h293v9z" />
    <glyph glyph-name="Racute" unicode="&#x154;" horiz-adv-x="577"
d="M86 700h206q111 0 165.5 -45.5t54.5 -138.5q0 -70 -37 -118.5t-102 -64.5v-2q22 -13 36 -29.5t24 -41.5l105 -260h-80l-90 230q-19 47 -45.5 64.5t-78.5 17.5h-84v-312h-74v700zM289 373q77 0 114.5 35t37.5 106q0 63 -38.5 93.5t-117.5 30.5h-125v-265h129zM340 894h74
l-93 -140h-57z" />
    <glyph glyph-name="racute" unicode="&#x155;" horiz-adv-x="334"
d="M72 378q0 85 -3 122h64q4 -39 4 -88v-12h2q19 53 59.5 81.5t94.5 28.5q18 0 29 -3v-58q-16 2 -33 2q-41 0 -75 -25t-53.5 -69t-19.5 -97v-260h-69v378zM240 694h74l-93 -140h-57z" />
    <glyph glyph-name="uni0156" unicode="&#x156;" horiz-adv-x="577"
d="M86 700h206q111 0 165.5 -45.5t54.5 -138.5q0 -70 -37 -118.5t-102 -64.5v-2q22 -13 36 -29.5t24 -41.5l105 -260h-80l-90 230q-19 47 -45.5 64.5t-78.5 17.5h-84v-312h-74v700zM289 373q77 0 114.5 35t37.5 106q0 63 -38.5 93.5t-117.5 30.5h-125v-265h129zM330 -88.5
q14 -16.5 14 -44.5q0 -30 -16 -66t-42 -64l-31 21q3 4 12 18.5t15.5 28t9.5 25.5h-6q-20 0 -33 13t-13 35t13 36t36 14q27 0 41 -16.5z" />
    <glyph glyph-name="uni0157" unicode="&#x157;" horiz-adv-x="334"
d="M72 378q0 85 -3 122h64q4 -39 4 -88v-12h2q19 53 59.5 81.5t94.5 28.5q18 0 29 -3v-58q-16 2 -33 2q-41 0 -75 -25t-53.5 -69t-19.5 -97v-260h-69v378zM149 -88.5q14 -16.5 14 -44.5q0 -30 -16 -66t-42 -64l-31 21q3 4 12 18.5t15.5 28t9.5 25.5h-6q-20 0 -33 13t-13 35
t13 36t36 14q27 0 41 -16.5z" />
    <glyph glyph-name="Rcaron" unicode="&#x158;" horiz-adv-x="577"
d="M86 700h206q111 0 165.5 -45.5t54.5 -138.5q0 -70 -37 -118.5t-102 -64.5v-2q22 -13 36 -29.5t24 -41.5l105 -260h-80l-90 230q-19 47 -45.5 64.5t-78.5 17.5h-84v-312h-74v700zM289 373q77 0 114.5 35t37.5 106q0 63 -38.5 93.5t-117.5 30.5h-125v-265h129zM159 890h60
l70 -92l70 92h60l-103 -136h-53z" />
    <glyph glyph-name="rcaron" unicode="&#x159;" horiz-adv-x="334"
d="M72 378q0 85 -3 122h64q4 -39 4 -88v-12h2q19 53 59.5 81.5t94.5 28.5q18 0 29 -3v-58q-16 2 -33 2q-41 0 -75 -25t-53.5 -69t-19.5 -97v-260h-69v378zM59 690h60l70 -92l70 92h60l-103 -136h-53z" />
    <glyph glyph-name="Sacute" unicode="&#x15a;" horiz-adv-x="525"
d="M136.5 18q-57.5 28 -92.5 76l46 46q31 -39 78.5 -63.5t93.5 -24.5q64 0 103.5 33t39.5 87q0 51 -32 87t-116 77q-73 36 -114.5 66.5t-59 62.5t-17.5 73q0 79 55.5 125.5t148.5 46.5q64 0 118 -29t80 -77l-50 -35q-23 36 -63 57.5t-85 21.5q-59 0 -94.5 -29.5t-35.5 -78.5
q0 -29 13 -49.5t47.5 -43t105.5 -58.5q93 -46 133 -95t40 -116q0 -56 -27.5 -99t-77.5 -66t-115 -23t-122.5 28zM314 894h74l-93 -140h-57z" />
    <glyph glyph-name="sacute" unicode="&#x15b;" horiz-adv-x="409"
d="M99.5 12q-43.5 22 -62.5 58l46 32q18 -28 48 -42.5t68 -14.5q45 0 74 26.5t29 67.5q0 33 -23.5 55.5t-81.5 44.5q-83 31 -116.5 64t-33.5 82q0 56 44 90.5t117 34.5q47 0 86.5 -21t58.5 -57l-44 -32q-34 55 -102 55q-40 0 -65.5 -19t-25.5 -49q0 -29 25 -49.5t93 -45.5
q74 -29 106 -64t32 -87q0 -68 -48 -109.5t-128 -41.5q-53 0 -96.5 22zM256 694h74l-93 -140h-57z" />
    <glyph glyph-name="Scircumflex" unicode="&#x15c;" horiz-adv-x="525"
d="M136.5 18q-57.5 28 -92.5 76l46 46q31 -39 78.5 -63.5t93.5 -24.5q64 0 103.5 33t39.5 87q0 51 -32 87t-116 77q-73 36 -114.5 66.5t-59 62.5t-17.5 73q0 79 55.5 125.5t148.5 46.5q64 0 118 -29t80 -77l-50 -35q-23 36 -63 57.5t-85 21.5q-59 0 -94.5 -29.5t-35.5 -78.5
q0 -29 13 -49.5t47.5 -43t105.5 -58.5q93 -46 133 -95t40 -116q0 -56 -27.5 -99t-77.5 -66t-115 -23t-122.5 28zM237 890h53l103 -136h-60l-70 91l-70 -91h-60z" />
    <glyph glyph-name="scircumflex" unicode="&#x15d;" horiz-adv-x="409"
d="M99.5 12q-43.5 22 -62.5 58l46 32q18 -28 48 -42.5t68 -14.5q45 0 74 26.5t29 67.5q0 33 -23.5 55.5t-81.5 44.5q-83 31 -116.5 64t-33.5 82q0 56 44 90.5t117 34.5q47 0 86.5 -21t58.5 -57l-44 -32q-34 55 -102 55q-40 0 -65.5 -19t-25.5 -49q0 -29 25 -49.5t93 -45.5
q74 -29 106 -64t32 -87q0 -68 -48 -109.5t-128 -41.5q-53 0 -96.5 22zM179 690h53l103 -136h-60l-70 91l-70 -91h-60z" />
    <glyph glyph-name="Scedilla" unicode="&#x15e;" horiz-adv-x="525"
d="M425 47.5q-54 -50.5 -144 -56.5l-27 -53q42 0 66.5 -18t24.5 -51q0 -38 -26 -61t-71 -23q-20 0 -40 3t-30 7l6 33q18 -5 52 -5q60 0 60 43q0 41 -81 40l-17 18l38 67q-58 4 -109 31.5t-83 71.5l46 46q31 -39 78.5 -63.5t93.5 -24.5q64 0 103.5 33t39.5 87q0 51 -32 87
t-116 77q-73 36 -114.5 66.5t-59 62.5t-17.5 73q0 79 55.5 125.5t148.5 46.5q64 0 118 -29t80 -77l-50 -35q-23 36 -63 57.5t-85 21.5q-59 0 -94.5 -29.5t-35.5 -78.5q0 -29 13 -49.5t47.5 -43t105.5 -58.5q93 -46 133 -95t40 -116q0 -80 -54 -130.5z" />
    <glyph glyph-name="scedilla" unicode="&#x15f;" horiz-adv-x="409"
d="M332 39q-40 -40 -107 -47l-29 -54q42 0 67 -18t25 -51q0 -38 -26.5 -61t-71.5 -23q-19 0 -39 3t-31 7l6 33q18 -5 52 -5q60 0 60 43q0 41 -81 40l-16 18l37 67q-48 4 -86 25t-55 54l46 32q18 -28 48 -42.5t68 -14.5q45 0 74 26.5t29 67.5q0 33 -23.5 55.5t-81.5 44.5
q-83 31 -116.5 64t-33.5 82q0 56 44 90.5t117 34.5q47 0 86.5 -21t58.5 -57l-44 -32q-34 55 -102 55q-40 0 -65.5 -19t-25.5 -49q0 -29 25 -49.5t93 -45.5q74 -29 106 -64t32 -87q0 -62 -40 -102z" />
    <glyph glyph-name="Scaron" unicode="&#x160;" horiz-adv-x="525"
d="M136.5 18q-57.5 28 -92.5 76l46 46q31 -39 78.5 -63.5t93.5 -24.5q64 0 103.5 33t39.5 87q0 51 -32 87t-116 77q-73 36 -114.5 66.5t-59 62.5t-17.5 73q0 79 55.5 125.5t148.5 46.5q64 0 118 -29t80 -77l-50 -35q-23 36 -63 57.5t-85 21.5q-59 0 -94.5 -29.5t-35.5 -78.5
q0 -29 13 -49.5t47.5 -43t105.5 -58.5q93 -46 133 -95t40 -116q0 -56 -27.5 -99t-77.5 -66t-115 -23t-122.5 28zM133 890h60l70 -92l70 92h60l-103 -136h-53z" />
    <glyph glyph-name="scaron" unicode="&#x161;" horiz-adv-x="409"
d="M99.5 12q-43.5 22 -62.5 58l46 32q18 -28 48 -42.5t68 -14.5q45 0 74 26.5t29 67.5q0 33 -23.5 55.5t-81.5 44.5q-83 31 -116.5 64t-33.5 82q0 56 44 90.5t117 34.5q47 0 86.5 -21t58.5 -57l-44 -32q-34 55 -102 55q-40 0 -65.5 -19t-25.5 -49q0 -29 25 -49.5t93 -45.5
q74 -29 106 -64t32 -87q0 -68 -48 -109.5t-128 -41.5q-53 0 -96.5 22zM75 690h60l70 -92l70 92h60l-103 -136h-53z" />
    <glyph glyph-name="uni0162" unicode="&#x162;" horiz-adv-x="547"
d="M297 0l-32 -62q42 0 66.5 -18t24.5 -51q0 -38 -26 -61t-71 -23q-20 0 -40 3t-30 7l6 33q18 -5 52 -5q60 0 60 43q0 41 -81 40l-17 18l43 76h-15v640h-219v60h510v-60h-217v-640h-14z" />
    <glyph glyph-name="uni0163" unicode="&#x163;" horiz-adv-x="363"
d="M276.5 -80q24.5 -18 24.5 -51q0 -38 -26 -61t-71 -23q-20 0 -40 3t-30 7l6 33q18 -5 52 -5q60 0 60 43q0 41 -81 40l-17 18l40 71q-45 11 -69.5 50t-24.5 100v300h-90v55h90v135l65 21h4v-156h141v-55h-141v-291q0 -56 19 -81.5t60 -25.5q40 0 67 12l6 -53
q-32 -16 -84 -16l-27 -52q42 0 66.5 -18z" />
    <glyph glyph-name="Tcaron" unicode="&#x164;" horiz-adv-x="547"
d="M237 640h-219v60h510v-60h-217v-640h-74v640zM144 890h60l70 -92l70 92h60l-103 -136h-53z" />
    <glyph glyph-name="tcaron" unicode="&#x165;" horiz-adv-x="429"
d="M135 30.5q-35 40.5 -35 114.5v300h-90v55h90v135l65 21h4v-156h141v-55h-141v-291q0 -56 19 -81.5t60 -25.5q40 0 67 12l6 -53q-33 -16 -87 -16q-64 0 -99 40.5zM413 711q14 -17 14 -44q0 -31 -15.5 -66.5t-41.5 -63.5l-32 21q3 5 12.5 19t15.5 27t9 25h-6
q-20 0 -33 13.5t-13 34.5q0 23 13 37t36 14q27 0 41 -17z" />
    <glyph glyph-name="Tbar" unicode="&#x166;" horiz-adv-x="547"
d="M311 640v-278h165v-52h-165v-310h-74v310h-166v52h166v278h-219v60h510v-60h-217z" />
    <glyph glyph-name="tbar" unicode="&#x167;" horiz-adv-x="363"
d="M321 6q-33 -16 -87 -16q-64 0 -99 40.5t-35 114.5v106h-80v47h80v147h-90v55h90v135l65 21h4v-156h141v-55h-141v-147h110v-47h-110v-97q0 -56 19 -81.5t60 -25.5q40 0 67 12z" />
    <glyph glyph-name="Utilde" unicode="&#x168;" horiz-adv-x="656"
d="M84 275v425h74v-423q0 -225 171 -225q170 0 170 225v423h74v-425q0 -141 -61.5 -213t-182.5 -72q-245 0 -245 285zM210 819.5q20 26.5 54 26.5q18 0 34.5 -7t38.5 -20q33 -20 48 -20q28 0 32 51h44q-1 -41 -22 -68.5t-55 -27.5q-18 0 -35 7.5t-38 20.5q-12 7 -24 13
t-21 6q-13 0 -22 -12.5t-10 -34.5h-45q1 39 21 65.5z" />
    <glyph glyph-name="utilde" unicode="&#x169;" horiz-adv-x="550"
d="M110.5 45.5q-44.5 55.5 -44.5 163.5v291h69v-294q0 -159 118 -159q45 0 80.5 23t56 64t20.5 92v274h69v-400q0 -46 9 -100h-62q-9 41 -10 94h-4q-22 -49 -68 -76.5t-103 -27.5q-86 0 -130.5 55.5zM158 619.5q20 26.5 54 26.5q18 0 34.5 -7t38.5 -20q33 -20 48 -20
q28 0 32 51h44q-1 -41 -22 -68.5t-55 -27.5q-18 0 -35 7.5t-38 20.5q-12 7 -24 13t-21 6q-13 0 -22 -12.5t-10 -34.5h-45q1 39 21 65.5z" />
    <glyph glyph-name="Umacron" unicode="&#x16a;" horiz-adv-x="656"
d="M84 275v425h74v-423q0 -225 171 -225q170 0 170 225v423h74v-425q0 -141 -61.5 -213t-182.5 -72q-245 0 -245 285zM178 814h302v-50h-302v50z" />
    <glyph glyph-name="umacron" unicode="&#x16b;" horiz-adv-x="550"
d="M110.5 45.5q-44.5 55.5 -44.5 163.5v291h69v-294q0 -159 118 -159q45 0 80.5 23t56 64t20.5 92v274h69v-400q0 -46 9 -100h-62q-9 41 -10 94h-4q-22 -49 -68 -76.5t-103 -27.5q-86 0 -130.5 55.5zM126 614h302v-50h-302v50z" />
    <glyph glyph-name="Ubreve" unicode="&#x16c;" horiz-adv-x="656"
d="M84 275v425h74v-423q0 -225 171 -225q170 0 170 225v423h74v-425q0 -141 -61.5 -213t-182.5 -72q-245 0 -245 285zM231 785q-37 31 -41 95h45q3 -36 26 -57t68 -21q41 0 65.5 19.5t28.5 58.5h45q-2 -59 -37 -92.5t-102 -33.5q-61 0 -98 31z" />
    <glyph glyph-name="ubreve" unicode="&#x16d;" horiz-adv-x="550"
d="M110.5 45.5q-44.5 55.5 -44.5 163.5v291h69v-294q0 -159 118 -159q45 0 80.5 23t56 64t20.5 92v274h69v-400q0 -46 9 -100h-62q-9 41 -10 94h-4q-22 -49 -68 -76.5t-103 -27.5q-86 0 -130.5 55.5zM179 585q-37 31 -41 95h45q3 -36 26 -57t68 -21q41 0 65.5 19.5
t28.5 58.5h45q-2 -59 -37 -92.5t-102 -33.5q-61 0 -98 31z" />
    <glyph glyph-name="Uring" unicode="&#x16e;" horiz-adv-x="656"
d="M84 275v425h74v-423q0 -225 171 -225q170 0 170 225v423h74v-425q0 -141 -61.5 -213t-182.5 -72q-245 0 -245 285zM264.5 767q-25.5 24 -25.5 61t25.5 61t64.5 24t64.5 -24t25.5 -61t-25.5 -61t-64.5 -24t-64.5 24zM365.5 791q14.5 15 14.5 37t-14.5 36.5t-36.5 14.5
t-36.5 -14.5t-14.5 -36.5t14.5 -37t36.5 -15t36.5 15z" />
    <glyph glyph-name="uring" unicode="&#x16f;" horiz-adv-x="550"
d="M110.5 45.5q-44.5 55.5 -44.5 163.5v291h69v-294q0 -159 118 -159q45 0 80.5 23t56 64t20.5 92v274h69v-400q0 -46 9 -100h-62q-9 41 -10 94h-4q-22 -49 -68 -76.5t-103 -27.5q-86 0 -130.5 55.5zM212.5 567q-25.5 24 -25.5 61t25.5 61t64.5 24t64.5 -24t25.5 -61
t-25.5 -61t-64.5 -24t-64.5 24zM313.5 591q14.5 15 14.5 37t-14.5 36.5t-36.5 14.5t-36.5 -14.5t-14.5 -36.5t14.5 -37t36.5 -15t36.5 15z" />
    <glyph glyph-name="Uhungarumlaut" unicode="&#x170;" horiz-adv-x="656"
d="M84 275v425h74v-423q0 -225 171 -225q170 0 170 225v423h74v-425q0 -141 -61.5 -213t-182.5 -72q-245 0 -245 285zM295 894h73l-93 -140h-57zM425 894h73l-93 -140h-57z" />
    <glyph glyph-name="uhungarumlaut" unicode="&#x171;" horiz-adv-x="550"
d="M110.5 45.5q-44.5 55.5 -44.5 163.5v291h69v-294q0 -159 118 -159q45 0 80.5 23t56 64t20.5 92v274h69v-400q0 -46 9 -100h-62q-9 41 -10 94h-4q-22 -49 -68 -76.5t-103 -27.5q-86 0 -130.5 55.5zM243 694h73l-93 -140h-57zM373 694h73l-93 -140h-57z" />
    <glyph glyph-name="Uogonek" unicode="&#x172;" horiz-adv-x="656"
d="M573 700v-425q0 -132 -53.5 -203.5t-159.5 -80.5q-66 -50 -66 -98q0 -24 16 -38t48 -14q22 0 53 13l8 -30q-16 -12 -37.5 -19.5t-46.5 -7.5q-43 0 -68 21.5t-25 64.5q0 64 65 108q-111 6 -167 77.5t-56 206.5v425h74v-423q0 -225 171 -225q170 0 170 225v423h74z" />
    <glyph glyph-name="uogonek" unicode="&#x173;" horiz-adv-x="550"
d="M526 -176q-16 -12 -37.5 -19.5t-46.5 -7.5q-43 0 -68 21.5t-25 64.5q0 72 80 117h-3q-9 41 -10 94h-4q-22 -49 -68 -76.5t-103 -27.5q-86 0 -130.5 55.5t-44.5 163.5v291h69v-294q0 -159 118 -159q45 0 80.5 23t56 64t20.5 92v274h69v-400q0 -46 9 -100h-9
q-78 -54 -78 -107q0 -24 16 -38t48 -14q22 0 53 13z" />
    <glyph glyph-name="Wcircumflex" unicode="&#x174;" horiz-adv-x="817"
d="M788 700l-144 -700h-76l-159 602l-160 -602h-76l-145 700h80l107 -592l154 592h78l154 -592l107 592h80zM382 890h53l103 -136h-60l-70 91l-70 -91h-60z" />
    <glyph glyph-name="wcircumflex" unicode="&#x175;" horiz-adv-x="655"
d="M645 500l-125 -500h-64l-128 427l-129 -427h-64l-124 500h73l87 -410l124 410h65l124 -410l87 410h74zM302 690h53l103 -136h-60l-70 91l-70 -91h-60z" />
    <glyph glyph-name="Ycircumflex" unicode="&#x176;" horiz-adv-x="554"
d="M240 278l-221 422h82l176 -353l175 353h83l-220 -422v-278h-75v278zM251 890h53l103 -136h-60l-70 91l-70 -91h-60z" />
    <glyph glyph-name="ycircumflex" unicode="&#x177;" horiz-adv-x="448"
d="M437 500l-177 -504q-37 -103 -88.5 -152.5t-122.5 -49.5q-27 0 -48 6v52q17 -5 39 -5q53 0 89.5 39t73.5 136l-186 478h75l142 -403l127 403h76zM204 690h53l103 -136h-60l-70 91l-70 -91h-60z" />
    <glyph glyph-name="Ydieresis" unicode="&#x178;" horiz-adv-x="554"
d="M240 278l-221 422h82l176 -353l175 353h83l-220 -422v-278h-75v278zM145.5 767q-13.5 13 -13.5 33q0 19 13.5 32t33.5 13t33 -13t13 -32t-13.5 -32.5t-32.5 -13.5q-20 0 -33.5 13zM341.5 767.5q-13.5 13.5 -13.5 32.5t13.5 32t33.5 13t33.5 -13t13.5 -32q0 -20 -13.5 -33
t-33.5 -13t-33.5 13.5z" />
    <glyph glyph-name="Zacute" unicode="&#x179;" horiz-adv-x="559"
d="M37 44l382 594h-352v62h442v-46l-381 -592h394v-62h-485v44zM330 894h74l-93 -140h-57z" />
    <glyph glyph-name="zacute" unicode="&#x17a;" horiz-adv-x="443"
d="M28 41l296 403h-282v56h363v-44l-291 -400h301v-56h-387v41zM272 694h74l-93 -140h-57z" />
    <glyph glyph-name="Zdotaccent" unicode="&#x17b;" horiz-adv-x="559"
d="M37 44l382 594h-352v62h442v-46l-381 -592h394v-62h-485v44zM245.5 767q-13.5 13 -13.5 33q0 19 13.5 32t33.5 13t33.5 -13t13.5 -32q0 -20 -13.5 -33t-33.5 -13t-33.5 13z" />
    <glyph glyph-name="zdotaccent" unicode="&#x17c;" horiz-adv-x="443"
d="M28 41l296 403h-282v56h363v-44l-291 -400h301v-56h-387v41zM187.5 567q-13.5 13 -13.5 33q0 19 13.5 32t33.5 13t33.5 -13t13.5 -32q0 -20 -13.5 -33t-33.5 -13t-33.5 13z" />
    <glyph glyph-name="Zcaron" unicode="&#x17d;" horiz-adv-x="559"
d="M37 44l382 594h-352v62h442v-46l-381 -592h394v-62h-485v44zM149 890h60l70 -92l70 92h60l-103 -136h-53z" />
    <glyph glyph-name="zcaron" unicode="&#x17e;" horiz-adv-x="443"
d="M28 41l296 403h-282v56h363v-44l-291 -400h301v-56h-387v41zM91 690h60l70 -92l70 92h60l-103 -136h-53z" />
    <glyph glyph-name="uni018F" unicode="&#x18f;" horiz-adv-x="668"
d="M487 666.5q70 -43.5 107 -125t37 -194.5q0 -110 -36 -190.5t-103.5 -123.5t-160.5 -43q-139 0 -216.5 89.5t-77.5 250.5v49h519q-7 127 -69 198.5t-165 71.5q-64 0 -117 -28t-86 -79l-47 46q40 58 104.5 90t143.5 32q97 0 167 -43.5zM490 122.5q60 71.5 66 198.5h-443
v-16q0 -117 58.5 -185.5t158.5 -68.5t160 71.5z" />
    <glyph glyph-name="florin" unicode="&#x192;" horiz-adv-x="445"
d="M269.5 636q-22.5 -20 -31.5 -61l-15 -75h155v-56h-167l-107 -520h-71l108 520h-99v56h111l17 84q13 63 50 94.5t108 31.5q30 0 59.5 -9t47.5 -23l-26 -46q-15 11 -34 17.5t-39 6.5q-44 0 -66.5 -20z" />
    <glyph glyph-name="Ohorn" unicode="&#x1a0;" horiz-adv-x="683"
d="M709 700v-32q0 -60 -29.5 -106.5t-78.5 -71.5q17 -65 17 -140q0 -110 -35.5 -191t-101 -125t-153.5 -44t-154 44t-101.5 125t-35.5 191t35.5 191t101.5 125t154 44q91 0 157.5 -46.5t100.5 -131.5q31 26 45 57.5t14 78.5v32h64zM443 87.5q49 36.5 75 104t26 158.5
t-26 158.5t-75 104t-115 36.5t-115 -36.5t-75.5 -104t-26.5 -158.5t26.5 -158.5t75.5 -104t115 -36.5t115 36.5z" />
    <glyph glyph-name="ohorn" unicode="&#x1a1;" horiz-adv-x="589"
d="M614 500v-32q0 -59 -28.5 -105t-75.5 -71q2 -28 2 -42q0 -78 -29 -137t-82.5 -91t-125.5 -32t-125.5 32t-82.5 91t-29 137t29 137t82.5 91t125.5 32q86 0 145 -45t81 -125q26 24 37.5 54.5t11.5 73.5v32h64zM397.5 100.5q45.5 55.5 45.5 149.5t-45.5 149.5t-122.5 55.5
t-122.5 -55.5t-45.5 -149.5t45.5 -149.5t122.5 -55.5t122.5 55.5z" />
    <glyph glyph-name="Uhorn" unicode="&#x1af;" horiz-adv-x="681"
d="M711 700v-32q0 -69 -38.5 -120t-99.5 -71v-202q0 -141 -61.5 -213t-182.5 -72q-245 0 -245 285v425h74v-423q0 -225 171 -225q170 0 170 225v423h74v-180q39 28 56.5 62t17.5 86v32h64z" />
    <glyph glyph-name="uhorn" unicode="&#x1b0;" horiz-adv-x="590"
d="M615 500v-32q0 -69 -38 -119.5t-98 -70.5v-178q0 -46 9 -100h-62q-9 41 -10 94h-4q-22 -49 -68 -76.5t-103 -27.5q-86 0 -130.5 55.5t-44.5 163.5v291h69v-294q0 -159 118 -159q45 0 80.5 23t56 64t20.5 92v274h69v-179q39 28 55.5 62t16.5 85v32h64z" />
    <glyph glyph-name="uni01CD" unicode="&#x1cd;" horiz-adv-x="581"
d="M431 164h-281l-52 -164h-80l237 700h71l237 -700h-80zM412 225l-121 385l-122 -385h243zM160 890h60l70 -92l70 92h60l-103 -136h-53z" />
    <glyph glyph-name="uni01CE" unicode="&#x1ce;" horiz-adv-x="510"
d="M91 32.5q-47 42.5 -47 109.5q0 74 55.5 115.5t155.5 41.5h112v27q0 62 -31.5 94.5t-92.5 32.5q-45 0 -82.5 -19.5t-60.5 -56.5l-38 44q32 43 79 66t106 23q91 0 140.5 -46t49.5 -130v-240q0 -37 11 -94h-60q-7 22 -13 74h-2q-28 -40 -70 -62t-92 -22q-73 0 -120 42.5z
M292 62q34 16 54.5 43.5t20.5 58.5v82h-115q-67 0 -103.5 -27t-36.5 -77q0 -43 29 -69.5t77 -26.5q40 0 74 16zM122 690h60l70 -92l70 92h60l-103 -136h-53z" />
    <glyph glyph-name="uni01CF" unicode="&#x1cf;" horiz-adv-x="284"
d="M105 700h74v-700h-74v700zM13 890h60l70 -92l70 92h60l-103 -136h-53z" />
    <glyph glyph-name="uni01D0" unicode="&#x1d0;" horiz-adv-x="244"
d="M87 500h70v-500h-70v500zM-8 690h60l70 -92l70 92h60l-103 -136h-53z" />
    <glyph glyph-name="uni01D1" unicode="&#x1d1;" horiz-adv-x="655"
d="M174 34q-66 44 -101.5 125t-35.5 191t35.5 191t101.5 125t154 44t153.5 -44t101 -125t35.5 -191t-35.5 -191t-101 -125t-153.5 -44t-154 44zM443 87.5q49 36.5 75 104t26 158.5t-26 158.5t-75 104t-115 36.5t-115 -36.5t-75.5 -104t-26.5 -158.5t26.5 -158.5t75.5 -104
t115 -36.5t115 36.5zM198 890h60l70 -92l70 92h60l-103 -136h-53z" />
    <glyph glyph-name="uni01D2" unicode="&#x1d2;" horiz-adv-x="550"
d="M149.5 22q-53.5 32 -82.5 91t-29 137t29 137t82.5 91t125.5 32t125.5 -32t82.5 -91t29 -137t-29 -137t-82.5 -91t-125.5 -32t-125.5 32zM397.5 100.5q45.5 55.5 45.5 149.5t-45.5 149.5t-122.5 55.5t-122.5 -55.5t-45.5 -149.5t45.5 -149.5t122.5 -55.5t122.5 55.5z
M145 690h60l70 -92l70 92h60l-103 -136h-53z" />
    <glyph glyph-name="uni01D3" unicode="&#x1d3;" horiz-adv-x="656"
d="M84 275v425h74v-423q0 -225 171 -225q170 0 170 225v423h74v-425q0 -141 -61.5 -213t-182.5 -72q-245 0 -245 285zM199 890h60l70 -92l70 92h60l-103 -136h-53z" />
    <glyph glyph-name="uni01D4" unicode="&#x1d4;" horiz-adv-x="550"
d="M110.5 45.5q-44.5 55.5 -44.5 163.5v291h69v-294q0 -159 118 -159q45 0 80.5 23t56 64t20.5 92v274h69v-400q0 -46 9 -100h-62q-9 41 -10 94h-4q-22 -49 -68 -76.5t-103 -27.5q-86 0 -130.5 55.5zM147 690h60l70 -92l70 92h60l-103 -136h-53z" />
    <glyph glyph-name="uni01D5" unicode="&#x1d5;" horiz-adv-x="656"
d="M84 275v425h74v-423q0 -225 171 -225q170 0 170 225v423h74v-425q0 -141 -61.5 -213t-182.5 -72q-245 0 -245 285zM192 939h275v-48h-275v48zM197.5 767q-13.5 13 -13.5 33q0 19 13.5 32t33.5 13t33 -13t13 -32t-13.5 -32.5t-32.5 -13.5q-20 0 -33.5 13zM393.5 767.5
q-13.5 13.5 -13.5 32.5t13.5 32t33.5 13t33.5 -13t13.5 -32q0 -20 -13.5 -33t-33.5 -13t-33.5 13.5z" />
    <glyph glyph-name="uni01D6" unicode="&#x1d6;" horiz-adv-x="550"
d="M110.5 45.5q-44.5 55.5 -44.5 163.5v291h69v-294q0 -159 118 -159q45 0 80.5 23t56 64t20.5 92v274h69v-400q0 -46 9 -100h-62q-9 41 -10 94h-4q-22 -49 -68 -76.5t-103 -27.5q-86 0 -130.5 55.5zM140 739h275v-48h-275v48zM145.5 567q-13.5 13 -13.5 33q0 19 13.5 32
t33.5 13t33 -13t13 -32t-13.5 -32.5t-32.5 -13.5q-20 0 -33.5 13zM341.5 567.5q-13.5 13.5 -13.5 32.5t13.5 32t33.5 13t33.5 -13t13.5 -32q0 -20 -13.5 -33t-33.5 -13t-33.5 13.5z" />
    <glyph glyph-name="uni01D7" unicode="&#x1d7;" horiz-adv-x="656"
d="M84 275v425h74v-423q0 -225 171 -225q170 0 170 225v423h74v-425q0 -141 -61.5 -213t-182.5 -72q-245 0 -245 285zM346 969h63l-63 -100h-47zM197.5 767q-13.5 13 -13.5 33q0 19 13.5 32t33.5 13t33 -13t13 -32t-13.5 -32.5t-32.5 -13.5q-20 0 -33.5 13zM393.5 767.5
q-13.5 13.5 -13.5 32.5t13.5 32t33.5 13t33.5 -13t13.5 -32q0 -20 -13.5 -33t-33.5 -13t-33.5 13.5z" />
    <glyph glyph-name="uni01D8" unicode="&#x1d8;" horiz-adv-x="550"
d="M110.5 45.5q-44.5 55.5 -44.5 163.5v291h69v-294q0 -159 118 -159q45 0 80.5 23t56 64t20.5 92v274h69v-400q0 -46 9 -100h-62q-9 41 -10 94h-4q-22 -49 -68 -76.5t-103 -27.5q-86 0 -130.5 55.5zM294 769h63l-63 -100h-47zM145.5 567q-13.5 13 -13.5 33q0 19 13.5 32
t33.5 13t33 -13t13 -32t-13.5 -32.5t-32.5 -13.5q-20 0 -33.5 13zM341.5 567.5q-13.5 13.5 -13.5 32.5t13.5 32t33.5 13t33.5 -13t13.5 -32q0 -20 -13.5 -33t-33.5 -13t-33.5 13.5z" />
    <glyph glyph-name="uni01D9" unicode="&#x1d9;" horiz-adv-x="656"
d="M84 275v425h74v-423q0 -225 171 -225q170 0 170 225v423h74v-425q0 -141 -61.5 -213t-182.5 -72q-245 0 -245 285zM200 980h63l66 -75l66 75h62l-105 -117h-47zM197.5 767q-13.5 13 -13.5 33q0 19 13.5 32t33.5 13t33 -13t13 -32t-13.5 -32.5t-32.5 -13.5q-20 0 -33.5 13
zM393.5 767.5q-13.5 13.5 -13.5 32.5t13.5 32t33.5 13t33.5 -13t13.5 -32q0 -20 -13.5 -33t-33.5 -13t-33.5 13.5z" />
    <glyph glyph-name="uni01DA" unicode="&#x1da;" horiz-adv-x="550"
d="M110.5 45.5q-44.5 55.5 -44.5 163.5v291h69v-294q0 -159 118 -159q45 0 80.5 23t56 64t20.5 92v274h69v-400q0 -46 9 -100h-62q-9 41 -10 94h-4q-22 -49 -68 -76.5t-103 -27.5q-86 0 -130.5 55.5zM148 780h63l66 -75l66 75h62l-105 -117h-47zM145.5 567
q-13.5 13 -13.5 33q0 19 13.5 32t33.5 13t33 -13t13 -32t-13.5 -32.5t-32.5 -13.5q-20 0 -33.5 13zM341.5 567.5q-13.5 13.5 -13.5 32.5t13.5 32t33.5 13t33.5 -13t13.5 -32q0 -20 -13.5 -33t-33.5 -13t-33.5 13.5z" />
    <glyph glyph-name="uni01DB" unicode="&#x1db;" horiz-adv-x="656"
d="M84 275v425h74v-423q0 -225 171 -225q170 0 170 225v423h74v-425q0 -141 -61.5 -213t-182.5 -72q-245 0 -245 285zM249 969h63l47 -100h-47zM197.5 767q-13.5 13 -13.5 33q0 19 13.5 32t33.5 13t33 -13t13 -32t-13.5 -32.5t-32.5 -13.5q-20 0 -33.5 13zM393.5 767.5
q-13.5 13.5 -13.5 32.5t13.5 32t33.5 13t33.5 -13t13.5 -32q0 -20 -13.5 -33t-33.5 -13t-33.5 13.5z" />
    <glyph glyph-name="uni01DC" unicode="&#x1dc;" horiz-adv-x="550"
d="M110.5 45.5q-44.5 55.5 -44.5 163.5v291h69v-294q0 -159 118 -159q45 0 80.5 23t56 64t20.5 92v274h69v-400q0 -46 9 -100h-62q-9 41 -10 94h-4q-22 -49 -68 -76.5t-103 -27.5q-86 0 -130.5 55.5zM197 769h63l47 -100h-47zM145.5 567q-13.5 13 -13.5 33q0 19 13.5 32
t33.5 13t33 -13t13 -32t-13.5 -32.5t-32.5 -13.5q-20 0 -33.5 13zM341.5 567.5q-13.5 13.5 -13.5 32.5t13.5 32t33.5 13t33.5 -13t13.5 -32q0 -20 -13.5 -33t-33.5 -13t-33.5 13.5z" />
    <glyph glyph-name="Gcaron" unicode="&#x1e6;" horiz-adv-x="633"
d="M567 356v-356h-46l-16 48q-33 -28 -78.5 -43t-97.5 -15q-89 0 -155 43.5t-101.5 125t-35.5 191.5q0 109 37 190.5t104.5 125.5t158.5 44q74 0 132 -27.5t86 -76.5l-40 -43q-26 41 -72 63t-106 22q-106 0 -165.5 -79t-59.5 -219q0 -142 59 -221t164 -79q48 0 89.5 15.5
t69.5 43.5v190h-172v57h245zM207 890h60l70 -92l70 92h60l-103 -136h-53z" />
    <glyph glyph-name="gcaron" unicode="&#x1e7;" horiz-adv-x="538"
d="M471 500v-485q0 -118 -57.5 -179t-167.5 -61q-99 0 -177 43l23 53q39 -19 75 -27.5t77 -8.5q82 0 122 46.5t40 143.5v50q-22 -39 -63.5 -61.5t-94.5 -22.5q-98 0 -154.5 71.5t-56.5 196.5q0 116 56.5 183.5t153.5 67.5q51 0 91.5 -22t63.5 -63h2l10 75h57zM402 284
q0 79 -39.5 125t-106.5 46q-69 0 -109 -53t-40 -145q0 -98 39.5 -153.5t109.5 -55.5q68 0 107 41.5t39 113.5v81zM126 690h60l70 -92l70 92h60l-103 -136h-53z" />
    <glyph glyph-name="Aringacute" unicode="&#x1fa;" horiz-adv-x="581"
d="M325 913h-51l49 101h67zM226 743.5q-25 23.5 -25 61.5q0 37 25 60.5t64 23.5q40 0 65 -23.5t25 -60.5q0 -38 -25 -61.5t-65 -23.5q-39 0 -64 23.5zM254 841.5q-14 -14.5 -14 -36.5q0 -23 14 -37.5t36 -14.5t36.5 14.5t14.5 37.5t-14 37t-37 14q-22 0 -36 -14.5zM431 164
h-281l-52 -164h-80l237 700h71l237 -700h-80zM412 225l-121 385l-122 -385h243z" />
    <glyph glyph-name="aringacute" unicode="&#x1fb;" horiz-adv-x="510"
d="M281 844h66l-65 -101h-51zM188 567q-25 24 -25 61t25 61t64 24q40 0 65 -23.5t25 -61.5t-25 -61.5t-65 -23.5q-39 0 -64 24zM288.5 590.5q14.5 14.5 14.5 37.5t-14 37t-37 14q-22 0 -36 -14.5t-14 -36.5q0 -23 14 -37.5t36 -14.5t36.5 14.5zM91 32.5q-47 42.5 -47 109.5
q0 74 55.5 115.5t155.5 41.5h112v27q0 62 -31.5 94.5t-92.5 32.5q-45 0 -82.5 -19.5t-60.5 -56.5l-38 44q32 43 79 66t106 23q91 0 140.5 -46t49.5 -130v-240q0 -37 11 -94h-60q-7 22 -13 74h-2q-28 -40 -70 -62t-92 -22q-73 0 -120 42.5zM292 62q34 16 54.5 43.5t20.5 58.5
v82h-115q-67 0 -103.5 -27t-36.5 -77q0 -43 29 -69.5t77 -26.5q40 0 74 16z" />
    <glyph glyph-name="AEacute" unicode="&#x1fc;" horiz-adv-x="791"
d="M447 638v-239h254v-61h-254v-276h288v-62h-362v161h-200l-73 -161h-82l331 700h386v-62h-288zM373 220v381l-173 -381h173zM506 894h74l-93 -140h-57z" />
    <glyph glyph-name="aeacute" unicode="&#x1fd;" horiz-adv-x="834"
d="M796 240h-363q2 -91 44 -141t115 -50q45 0 81.5 19t61.5 55l40 -39q-28 -44 -76.5 -69t-107.5 -25q-63 0 -110 24.5t-76 71.5q-28 -44 -79 -70t-113 -26q-75 0 -122 41t-47 106q0 72 53 113.5t145 41.5h122v34q0 62 -31 94.5t-90 32.5q-45 0 -83 -20t-61 -56l-37 44
q31 43 79 66t106 23q60 0 102 -22t63 -64q30 42 74.5 64t101.5 22q100 0 154 -62.5t54 -176.5v-31zM728 301q0 73 -37.5 112.5t-105.5 39.5q-63 0 -102 -42t-48 -119h293v9zM364 240h-114q-64 0 -101.5 -28t-37.5 -75q0 -41 29.5 -66t76.5 -25q63 0 105 34t42 84v76z
M469 694h74l-93 -140h-57z" />
    <glyph glyph-name="Oslashacute" unicode="&#x1fe;" horiz-adv-x="655"
d="M591.5 518.5q26.5 -73.5 26.5 -168.5q0 -110 -35.5 -191t-101 -125t-153.5 -44q-78 0 -139 35l-36 -68h-61l53 100q-52 46 -80 121t-28 172q0 110 35.5 191t101.5 125t154 44q78 0 142 -36l27 51h64l-46 -86q50 -47 76.5 -120.5zM128 217.5q17 -58.5 50 -97.5l261 495
q-48 34 -111 34q-66 0 -115 -36.5t-75.5 -104t-26.5 -158.5q0 -74 17 -132.5zM443 87.5q49 36.5 75 104t26 158.5q0 145 -63 225l-261 -492q46 -32 108 -32q66 0 115 36.5zM379 894h74l-93 -140h-57z" />
    <glyph glyph-name="oslashacute" unicode="&#x1ff;" horiz-adv-x="550"
d="M488.5 375q23.5 -55 23.5 -125q0 -78 -29 -137t-82.5 -91t-125.5 -32q-54 0 -96 18l-27 -51h-54l39 73q-48 33 -73.5 89.5t-25.5 130.5q0 78 29 137t82.5 91t125.5 32q57 0 103 -20l24 45h58l-38 -72q43 -33 66.5 -88zM166 86l185 351q-33 18 -76 18q-77 0 -122.5 -55.5
t-45.5 -149.5q0 -108 59 -164zM397.5 100.5q45.5 55.5 45.5 149.5q0 99 -52 156l-185 -347q33 -14 69 -14q77 0 122.5 55.5zM326 694h74l-93 -140h-57z" />
    <glyph glyph-name="uni0218" unicode="&#x218;" horiz-adv-x="525"
d="M136.5 18q-57.5 28 -92.5 76l46 46q31 -39 78.5 -63.5t93.5 -24.5q64 0 103.5 33t39.5 87q0 51 -32 87t-116 77q-73 36 -114.5 66.5t-59 62.5t-17.5 73q0 79 55.5 125.5t148.5 46.5q64 0 118 -29t80 -77l-50 -35q-23 36 -63 57.5t-85 21.5q-59 0 -94.5 -29.5t-35.5 -78.5
q0 -29 13 -49.5t47.5 -43t105.5 -58.5q93 -46 133 -95t40 -116q0 -56 -27.5 -99t-77.5 -66t-115 -23t-122.5 28zM304 -88.5q14 -16.5 14 -44.5q0 -30 -16 -66t-42 -64l-31 21q3 4 12 18.5t15.5 28t9.5 25.5h-6q-20 0 -33 13t-13 35t13 36t36 14q27 0 41 -16.5z" />
    <glyph glyph-name="uni0219" unicode="&#x219;" horiz-adv-x="409"
d="M99.5 12q-43.5 22 -62.5 58l46 32q18 -28 48 -42.5t68 -14.5q45 0 74 26.5t29 67.5q0 33 -23.5 55.5t-81.5 44.5q-83 31 -116.5 64t-33.5 82q0 56 44 90.5t117 34.5q47 0 86.5 -21t58.5 -57l-44 -32q-34 55 -102 55q-40 0 -65.5 -19t-25.5 -49q0 -29 25 -49.5t93 -45.5
q74 -29 106 -64t32 -87q0 -68 -48 -109.5t-128 -41.5q-53 0 -96.5 22zM246 -88.5q14 -16.5 14 -44.5q0 -30 -16 -66t-42 -64l-31 21q3 4 12 18.5t15.5 28t9.5 25.5h-6q-20 0 -33 13t-13 35t13 36t36 14q27 0 41 -16.5z" />
    <glyph glyph-name="uni021A" unicode="&#x21a;" horiz-adv-x="547"
d="M237 640h-219v60h510v-60h-217v-640h-74v640zM315 -88.5q14 -16.5 14 -44.5q0 -30 -16 -66t-42 -64l-31 21q3 4 12 18.5t15.5 28t9.5 25.5h-6q-20 0 -33 13t-13 35t13 36t36 14q27 0 41 -16.5z" />
    <glyph glyph-name="uni021B" unicode="&#x21b;" horiz-adv-x="363"
d="M135 30.5q-35 40.5 -35 114.5v300h-90v55h90v135l65 21h4v-156h141v-55h-141v-291q0 -56 19 -81.5t60 -25.5q40 0 67 12l6 -53q-33 -16 -87 -16q-64 0 -99 40.5zM260 -88.5q14 -16.5 14 -44.5q0 -30 -16 -66t-42 -64l-31 21q3 4 12 18.5t15.5 28t9.5 25.5h-6
q-20 0 -33 13t-13 35t13 36t36 14q27 0 41 -16.5z" />
    <glyph glyph-name="uni0237" unicode="&#x237;" horiz-adv-x="237"
d="M-42 -182l2 54q12 -1 32 -1q56 0 77 34.5t21 104.5v490h70v-495q0 -94 -36 -143t-114 -49q-20 0 -52 5z" />
    <glyph glyph-name="uni0251" unicode="&#x251;" horiz-adv-x="534"
d="M92.5 62.5q-55.5 72.5 -55.5 196.5q0 116 56 183.5t153 67.5q49 0 88 -21.5t63 -61.5h2v73h68v-376q0 -88 3 -124h-62q-3 44 -3 84h-2q-23 -44 -66 -69t-93 -25q-96 0 -151.5 72.5zM358.5 89.5q40.5 42.5 40.5 110.5v87q0 76 -40 122t-107 46q-69 0 -107.5 -52.5
t-38.5 -145.5q0 -97 38.5 -153.5t106.5 -56.5q67 0 107.5 42.5z" />
    <glyph glyph-name="uni0259" unicode="&#x259;" horiz-adv-x="510"
d="M412 441.5q60 -68.5 60 -190.5t-59.5 -191.5t-164.5 -69.5q-98 0 -154 67t-56 187v34h364q-6 83 -47 128t-112 45q-45 0 -82.5 -19.5t-61.5 -54.5l-41 39q30 45 78.5 69.5t107.5 24.5q108 0 168 -68.5zM357.5 93q39.5 46 44.5 131h-299v-8q0 -78 39.5 -123.5t107.5 -45.5
t107.5 46z" />
    <glyph glyph-name="uni02BB" unicode="&#x2bb;" horiz-adv-x="200"
d="M137.5 639q12.5 -13 12.5 -34q0 -23 -13 -37t-35 -14q-27 0 -41.5 17t-14.5 44q0 31 16 66.5t42 63.5l31 -21q-15 -22 -23.5 -38t-13.5 -34h7q20 0 32.5 -13z" />
    <glyph glyph-name="uni02BC" unicode="&#x2bc;" horiz-adv-x="200"
d="M141 712q14 -17 14 -44q0 -31 -15.5 -66.5t-41.5 -63.5l-32 21q3 5 12.5 19t15.5 27t9 25h-6q-20 0 -33 13.5t-13 34.5q0 23 13 37t36 14q27 0 41 -17z" />
    <glyph glyph-name="uni02BE" unicode="&#x2be;"
d="M0 576q22 0 36.5 15t14.5 37t-14.5 36.5t-36.5 14.5v34q39 0 64.5 -24t25.5 -61t-25.5 -61t-64.5 -24v33z" />
    <glyph glyph-name="uni02BF" unicode="&#x2bf;"
d="M-64.5 567q-25.5 24 -25.5 61t25.5 61t64.5 24v-34q-22 0 -36.5 -14.5t-14.5 -36.5t14.5 -37t36.5 -15v-33q-39 0 -64.5 24z" />
    <glyph glyph-name="circumflex" unicode="&#x2c6;" horiz-adv-x="400"
d="M174 690h53l103 -136h-60l-70 91l-69 -91h-61z" />
    <glyph glyph-name="caron" unicode="&#x2c7;" horiz-adv-x="400"
d="M70 690h61l69 -92l70 92h60l-103 -136h-53z" />
    <glyph glyph-name="uni02C8" unicode="&#x2c8;"
d="M-37 730h74v-150h-74v150z" />
    <glyph glyph-name="uni02C9" unicode="&#x2c9;" horiz-adv-x="498"
d="M71 654h356v-46h-356v46z" />
    <glyph glyph-name="uni02CA" unicode="&#x2ca;"
d="M-97 592l115 106q28 25 50 25q17 0 27.5 -10t10.5 -25q0 -25 -36 -46l-143 -83z" />
    <glyph glyph-name="uni02CB" unicode="&#x2cb;"
d="M-60 642q-36 21 -36 46q0 15 10 25t27 10q24 0 51 -24l115 -107l-24 -33z" />
    <glyph glyph-name="uni02CC" unicode="&#x2cc;"
d="M-37 -40h74v-150h-74v150z" />
    <glyph glyph-name="breve" unicode="&#x2d8;" horiz-adv-x="400"
d="M102 585q-37 31 -41 95h43q3 -36 27 -57t69 -21q41 0 66.5 19.5t29.5 58.5h43q-2 -59 -37 -92.5t-102 -33.5q-61 0 -98 31z" />
    <glyph glyph-name="dotaccent" unicode="&#x2d9;" horiz-adv-x="400"
d="M166.5 567q-13.5 13 -13.5 33q0 19 13.5 32t33.5 13t33.5 -13t13.5 -32q0 -20 -13.5 -33t-33.5 -13t-33.5 13z" />
    <glyph glyph-name="ring" unicode="&#x2da;" horiz-adv-x="400"
d="M135.5 567q-25.5 24 -25.5 61t25.5 61t64.5 24t64.5 -24t25.5 -61t-25.5 -61t-64.5 -24t-64.5 24zM236.5 591q14.5 15 14.5 37t-14.5 36.5t-36.5 14.5t-36.5 -14.5t-14.5 -36.5t14.5 -37t36.5 -15t36.5 15z" />
    <glyph glyph-name="ogonek" unicode="&#x2db;" horiz-adv-x="400"
d="M136 -181.5q-25 21.5 -25 64.5q0 36 22.5 67t68.5 54h46q-42 -27 -63.5 -55.5t-21.5 -55.5q0 -24 17 -38t51 -14q20 0 49 10l9 -27q-37 -27 -85 -27q-43 0 -68 21.5z" />
    <glyph glyph-name="tilde" unicode="&#x2dc;" horiz-adv-x="400"
d="M84.5 619.5q19.5 26.5 54.5 26.5q18 0 34.5 -7t38.5 -20q33 -20 48 -20q28 0 31 51h45q-1 -41 -22 -68.5t-55 -27.5q-18 0 -35.5 7.5t-38.5 20.5q-12 7 -24 13t-20 6q-14 0 -23 -12.5t-10 -34.5h-44q1 39 20.5 65.5z" />
    <glyph glyph-name="hungarumlaut" unicode="&#x2dd;" horiz-adv-x="400"
d="M139 696h73l-96 -142h-56zM270 696h73l-96 -142h-57z" />
    <glyph glyph-name="gravecomb" unicode="&#x300;"
d="M-121 694h74l76 -140h-57z" />
    <glyph glyph-name="acutecomb" unicode="&#x301;"
d="M51 694h74l-93 -140h-57z" />
    <glyph glyph-name="uni0302" unicode="&#x302;"
d="M-26 690h53l103 -136h-60l-70 91l-70 -91h-60z" />
    <glyph glyph-name="tildecomb" unicode="&#x303;"
d="M-119 619.5q20 26.5 54 26.5q18 0 34.5 -7t38.5 -20q33 -20 48 -20q28 0 32 51h44q-1 -41 -22 -68.5t-55 -27.5q-18 0 -35 7.5t-38 20.5q-12 7 -24 13t-21 6q-13 0 -22 -12.5t-10 -34.5h-45q1 39 21 65.5z" />
    <glyph glyph-name="uni0304" unicode="&#x304;"
d="M-151 614h302v-50h-302v50z" />
    <glyph glyph-name="uni0306" unicode="&#x306;"
d="M-98 585q-37 31 -41 95h45q3 -36 26 -57t68 -21q41 0 65.5 19.5t28.5 58.5h45q-2 -59 -37 -92.5t-102 -33.5q-61 0 -98 31z" />
    <glyph glyph-name="uni0307" unicode="&#x307;"
d="M-33.5 567q-13.5 13 -13.5 33q0 19 13.5 32t33.5 13t33.5 -13t13.5 -32q0 -20 -13.5 -33t-33.5 -13t-33.5 13z" />
    <glyph glyph-name="uni0308" unicode="&#x308;"
d="M-131.5 567q-13.5 13 -13.5 33q0 19 13.5 32t33.5 13t33 -13t13 -32t-13.5 -32.5t-32.5 -13.5q-20 0 -33.5 13zM64.5 567.5q-13.5 13.5 -13.5 32.5t13.5 32t33.5 13t33.5 -13t13.5 -32q0 -20 -13.5 -33t-33.5 -13t-33.5 13.5z" />
    <glyph glyph-name="hookabovecomb" unicode="&#x309;"
d="M-19 592q10 15 29 32q16 14 24.5 26t8.5 29q0 15 -11 24.5t-33 9.5q-40 0 -63 -44l-33 29q13 27 39.5 42.5t62.5 15.5q42 0 67 -19t25 -57q0 -25 -11 -42t-31 -36q-15 -14 -22.5 -24.5t-7.5 -23.5h-54q0 23 10 38z" />
    <glyph glyph-name="uni030A" unicode="&#x30a;"
d="M-64.5 567q-25.5 24 -25.5 61t25.5 61t64.5 24t64.5 -24t25.5 -61t-25.5 -61t-64.5 -24t-64.5 24zM36.5 591q14.5 15 14.5 37t-14.5 36.5t-36.5 14.5t-36.5 -14.5t-14.5 -36.5t14.5 -37t36.5 -15t36.5 15z" />
    <glyph glyph-name="uni030B" unicode="&#x30b;"
d="M-34 694h73l-93 -140h-57zM96 694h73l-93 -140h-57z" />
    <glyph glyph-name="uni030C" unicode="&#x30c;"
d="M-130 690h60l70 -92l70 92h60l-103 -136h-53z" />
    <glyph glyph-name="uni031B" unicode="&#x31b;"
d="M-85 347q50 31 71 67t21 94v31h64v-31q0 -75 -44.5 -128t-111.5 -69v36z" />
    <glyph glyph-name="dotbelowcomb" unicode="&#x323;"
d="M-33.5 -150q-13.5 13 -13.5 32q0 20 13.5 33t33.5 13t33.5 -13t13.5 -33q0 -19 -13.5 -32t-33.5 -13t-33.5 13z" />
    <glyph glyph-name="uni0324" unicode="&#x324;"
d="M-140.5 -150q-13.5 13 -13.5 32q0 20 13.5 33t33.5 13t33.5 -13t13.5 -33q0 -19 -13.5 -32t-33.5 -13t-33.5 13zM73.5 -150q-13.5 13 -13.5 32q0 20 13.5 33t33.5 13t33.5 -13t13.5 -33q0 -19 -13.5 -32t-33.5 -13t-33.5 13z" />
    <glyph glyph-name="uni0326" unicode="&#x326;"
d="M41 -88.5q14 -16.5 14 -44.5q0 -30 -16 -66t-42 -64l-31 21q3 4 12 18.5t15.5 28t9.5 25.5h-6q-20 0 -33 13t-13 35t13 36t36 14q27 0 41 -16.5z" />
    <glyph glyph-name="uni0327" unicode="&#x327;"
d="M-54 -211q-20 3 -31 7l6 34q18 -5 52 -5q60 0 60 43q0 40 -81 40l-16 18l48 87h46l-39 -74q42 0 67 -18t25 -51q0 -38 -26.5 -61t-71.5 -23q-19 0 -39 3z" />
    <glyph glyph-name="uni0328" unicode="&#x328;"
d="M-82 -181.5q-25 21.5 -25 64.5q0 36 22 67.5t68 54.5h40v-5q-78 -54 -78 -107q0 -24 16.5 -38t48.5 -14q21 0 52 13l9 -30q-35 -27 -85 -27q-43 0 -68 21.5z" />
    <glyph glyph-name="uni032E" unicode="&#x32e;"
d="M-98 -166.5q-37 30.5 -41 94.5h43q3 -36 27 -56.5t69 -20.5q41 0 66.5 19t29.5 58h43q-2 -58 -37 -91.5t-102 -33.5q-61 0 -98 30.5z" />
    <glyph glyph-name="uni0331" unicode="&#x331;"
d="M-151 -64h302v-50h-302v50z" />
    <glyph glyph-name="uni0394" unicode="&#x394;" horiz-adv-x="642"
d="M4 40l302 660h30l302 -660v-40h-634v40zM557 58l-236 533l-236 -533h472z" />
    <glyph glyph-name="uni03A9" unicode="&#x3a9;" horiz-adv-x="772"
d="M47 60h185q-77 54 -121.5 143.5t-44.5 192.5q0 96 38.5 167t111 109t171.5 38q98 0 170.5 -38t111 -109t38.5 -167q0 -103 -44 -192.5t-121 -143.5h184v-60h-271v74q82 34 130 119t48 197q0 120 -66 189t-180 69q-115 0 -181 -69t-66 -189q0 -113 48 -197.5t131 -118.5
v-74h-272v60z" />
    <glyph glyph-name="uni03BC" unicode="&#x3bc;" horiz-adv-x="550"
d="M66 500h69v-292q0 -75 31.5 -118.5t92.5 -43.5q67 0 109 51t42 131v272h69v-395q0 -48 10 -105h-63q-9 43 -11 86h-3q-48 -96 -152 -96q-39 0 -73 14.5t-52 42.5v-266h-69v719z" />
    <glyph glyph-name="pi" unicode="&#x3c0;" horiz-adv-x="663"
d="M476 15q-18 25 -18 75v355h-263v-445h-70v445h-98v55h598v-55h-98v-353q0 -23 9 -33t28 -10q22 0 48 10v-48q-17 -10 -33.5 -15.5t-38.5 -5.5q-46 0 -64 25z" />
    <glyph glyph-name="uni0E01" unicode="&#xe01;" horiz-adv-x="568"
d="M81 259q0 37 20 68t54 45q-40 15 -108 17q8 90 71 143.5t162 53.5q96 0 153.5 -54.5t57.5 -145.5v-386h-69v379q0 69 -40 109.5t-109 40.5q-55 0 -97.5 -27t-58.5 -73q38 -4 70 -18t48 -32v-14q-39 -10 -61.5 -38t-22.5 -66v-261h-70v259z" />
    <glyph glyph-name="uni0E02" unicode="&#xe02;" horiz-adv-x="580"
d="M503 576v-449q0 -66 -39.5 -101.5t-112.5 -35.5t-111.5 35.5t-38.5 101.5v125q0 26 9.5 47.5t27.5 50.5q19 30 28.5 53t9.5 50q0 41 -26.5 61t-67.5 20q-56 0 -85 -32q11 3 23 3q37 0 61.5 -24t24.5 -64q0 -38 -24.5 -63.5t-66.5 -25.5q-44 0 -70 29.5t-26 77.5
q0 64 43.5 107.5t121.5 43.5q68 0 112.5 -32.5t44.5 -96.5q0 -32 -9.5 -56t-27.5 -57q-17 -29 -25.5 -50t-8.5 -47v-125q0 -36 21 -55.5t61 -19.5t61 19.5t21 55.5v454h69zM148.5 449.5q-12.5 12.5 -32.5 12.5t-33 -12.5t-13 -32.5t13 -32.5t33 -12.5t32.5 12.5t12.5 32.5
t-12.5 32.5z" />
    <glyph glyph-name="uni0E03" unicode="&#xe03;" horiz-adv-x="588"
d="M511 576v-449q0 -66 -39.5 -101.5t-112.5 -35.5t-111.5 35.5t-38.5 101.5v85q0 28 10.5 52.5t32.5 65.5q23 41 34 67.5t11 56.5q0 25 -11 45.5t-30 28.5l-60 -57l-63 56q-42 -28 -51 -87q19 12 41 12q39 0 63.5 -24.5t24.5 -63.5q0 -40 -25.5 -64.5t-65.5 -24.5
q-46 0 -74.5 35.5t-28.5 92.5q0 65 33 116t86 67l60 -58l57 58q48 -9 78 -44t30 -85q0 -39 -11.5 -69.5t-33.5 -69.5q-19 -33 -28.5 -57t-9.5 -51v-88q0 -36 21 -55.5t61 -19.5t60.5 19.5t20.5 55.5v454h70zM88 396.5q-12 -12.5 -12 -32.5t12.5 -33t31.5 -13q20 0 33 13
t13 33t-13 32.5t-33 12.5t-32 -12.5z" />
    <glyph glyph-name="uni0E04" unicode="&#xe04;" horiz-adv-x="595"
d="M455.5 535q62.5 -51 62.5 -138v-397h-69v390q0 63 -43 101t-118 38q-81 0 -127 -41t-46 -113q0 -30 16 -108q6 -26 8 -38q16 80 55 129.5t93 49.5q41 0 66.5 -23t25.5 -62t-24 -63t-62 -24q-26 0 -48 12.5t-31 35.5q-22 -33 -37.5 -86.5t-15.5 -96.5v-101h-69v141
q0 22 -9 58.5t-11 42.5q-26 94 -26 138q0 94 65.5 150t176.5 56q105 0 167.5 -51zM260 353.5q-12 -11.5 -12 -30.5q0 -20 12 -32t31 -12t30.5 12t11.5 32q0 19 -11.5 30.5t-30.5 11.5t-31 -11.5z" />
    <glyph glyph-name="uni0E05" unicode="&#xe05;" horiz-adv-x="599"
d="M484.5 521.5q37.5 -53.5 37.5 -134.5v-387h-69v381q0 54 -15.5 89.5t-49.5 54.5l-101 -80l-103 82q-35 -22 -52 -57t-17 -87q0 -35 16 -115l4.5 -22.5t4.5 -26.5q20 72 57.5 120t90.5 48q41 0 66.5 -23t25.5 -62t-24.5 -63t-62.5 -24q-24 0 -46 13.5t-31 36.5
q-24 -34 -39.5 -80.5t-15.5 -87.5v-97h-69v141q0 24 -19 100q-26 96 -26 140q0 79 38 134.5t107 70.5l95 -80l96 80q64 -11 101.5 -64.5zM260.5 332q-12.5 -12 -12.5 -30q0 -20 12.5 -32t31.5 -12t31 12t12 32q0 18 -12 30t-31 12t-31.5 -12z" />
    <glyph glyph-name="uni0E06" unicode="&#xe06;" horiz-adv-x="623"
d="M546 576v-576h-67q-27 44 -72 75.5t-101 47.5q7 -17 7 -34q0 -43 -29 -71t-74 -28t-73.5 28t-28.5 71q0 42 29 69.5t70 27.5h3v29q0 27 11 53t32 63q22 39 33 66t11 57q0 25 -11.5 45.5t-30.5 28.5l-59 -57l-63 56q-40 -27 -50 -86q17 11 40 11q39 0 63.5 -24.5
t24.5 -63.5q0 -40 -25.5 -64.5t-65.5 -24.5q-46 0 -74.5 35.5t-28.5 92.5q0 65 33 116t86 67l60 -58l57 58q47 -9 77 -44t30 -85q0 -38 -11.5 -68t-33.5 -69q-19 -34 -28 -56.5t-9 -48.5v-32q64 -13 115.5 -38.5t82.5 -60.5v492h70zM88 396.5q-12 -12.5 -12 -32.5t12.5 -33
t31.5 -13q20 0 33 13t13 33t-13 32.5t-33 12.5t-32 -12.5zM244 53.5q14 13.5 14 34.5t-14 35t-35 14t-34.5 -14t-13.5 -35t13.5 -34.5t34.5 -13.5t35 13.5z" />
    <glyph glyph-name="uni0E07" unicode="&#xe07;" horiz-adv-x="444"
d="M337.5 557.5q28.5 -28.5 28.5 -73.5v-484h-68l-274 302l39 43l234 -256v315q-16 -9 -38 -9q-41 0 -67.5 27t-26.5 69t27.5 68.5t70.5 26.5q46 0 74.5 -28.5zM295.5 456.5q13.5 13.5 13.5 34.5q0 20 -13.5 34t-34.5 14t-34.5 -14t-13.5 -34q0 -21 13.5 -34.5t34.5 -13.5
t34.5 13.5z" />
    <glyph glyph-name="uni0E08" unicode="&#xe08;" horiz-adv-x="551"
d="M275 12q-29 22 -36 64l-23 143q-7 -5 -19 -8.5t-23 -3.5q-39 0 -64 24t-25 62t26 62.5t65 24.5q35 0 60 -20.5t30 -51.5l37 -225q2 -17 15.5 -26.5t33.5 -9.5q25 0 38.5 12t13.5 35v332q0 47 -38.5 75t-103.5 28q-64 0 -108 -28.5t-52 -74.5h-69q7 74 69 117t162 43
q96 0 152.5 -42.5t56.5 -114.5v-327q0 -54 -31 -83t-90 -29q-48 0 -77 22zM203.5 263q11.5 12 11.5 31t-11.5 30.5t-30.5 11.5t-30.5 -11.5t-11.5 -30.5t11.5 -31t30.5 -12t30.5 12z" />
    <glyph glyph-name="uni0E09" unicode="&#xe09;" horiz-adv-x="564"
d="M491 133q16 -23 16 -51q0 -41 -26.5 -67t-67.5 -26q-43 0 -70.5 26t-27.5 66v11q-81 -36 -122 -92h-73v133q0 37 14 62h-5q-39 0 -64.5 25t-25.5 64q0 40 25.5 64.5t66.5 24.5t67 -24.5t26 -61.5q0 -18 -4.5 -32t-14.5 -39q-9 -20 -14 -34.5t-5 -31.5v-82q36 44 140 87
q49 20 70.5 47t21.5 67v154q0 48 -40.5 77t-107.5 29q-65 0 -110.5 -29t-54.5 -76h-69q6 73 70 117.5t164 44.5q64 0 113.5 -20.5t76.5 -57.5t27 -85v-154q0 -63 -40 -103q28 -10 44 -33zM163.5 251.5q12.5 12.5 12.5 32.5q0 19 -12.5 31.5t-32.5 12.5q-19 0 -31.5 -12
t-12.5 -32t12 -32.5t32 -12.5t32.5 12.5zM445 48q13 13 13 34t-13 34t-34 13q-20 0 -33 -13t-13 -34t13 -34t33 -13q21 0 34 13z" />
    <glyph glyph-name="uni0E0A" unicode="&#xe0a;" horiz-adv-x="590"
d="M498 422q15 -26 15 -65v-230q0 -66 -41 -101.5t-116 -35.5t-115 35.5t-40 101.5v125q0 26 9.5 47.5t27.5 50.5q19 30 28.5 53t9.5 50q0 41 -26.5 61t-67.5 20q-54 0 -85 -32q11 3 23 3q37 0 61.5 -24t24.5 -64q0 -38 -24.5 -63.5t-66.5 -25.5q-44 0 -70 29.5t-26 77.5
q0 64 43.5 107.5t121.5 43.5q68 0 111 -32.5t43 -96.5q0 -32 -9 -56.5t-27 -56.5q-16 -29 -24 -50t-8 -47v-125q0 -36 22.5 -55.5t64.5 -19.5t64.5 19.5t22.5 55.5v237q0 30 -14 49t-45 29v40q79 33 83 134h73q-4 -52 -29.5 -93.5t-57.5 -58.5q29 -11 44 -37zM148.5 449.5
q-12.5 12.5 -32.5 12.5t-33 -12.5t-13 -32.5t13 -32.5t33 -12.5t32.5 12.5t12.5 32.5t-12.5 32.5z" />
    <glyph glyph-name="uni0E0B" unicode="&#xe0b;" horiz-adv-x="597"
d="M505 422q15 -26 15 -65v-230q0 -66 -40.5 -101.5t-115.5 -35.5t-115 35.5t-40 101.5v85q0 28 10.5 52.5t32.5 65.5q23 41 34 67.5t11 56.5q0 26 -10.5 45.5t-31.5 28.5l-59 -57l-63 56q-42 -28 -51 -87q19 12 41 12q39 0 63.5 -24.5t24.5 -63.5q0 -40 -25.5 -64.5
t-65.5 -24.5q-46 0 -74.5 35.5t-28.5 92.5q0 65 33 116t86 67l60 -58l57 58q51 -9 79 -43.5t28 -85.5q0 -39 -11.5 -69.5t-33.5 -69.5q-19 -35 -28 -58t-9 -50v-88q0 -36 22.5 -55.5t63.5 -19.5q42 0 64.5 19.5t22.5 55.5v237q0 30 -13 49t-44 29v40q77 32 81 134h73
q-4 -52 -29.5 -93.5t-57.5 -58.5q29 -11 44 -37zM88 396.5q-12 -12.5 -12 -32.5q0 -21 12 -33.5t32 -12.5q21 0 33.5 12.5t12.5 33.5q0 20 -12.5 32.5t-33.5 12.5q-20 0 -32 -12.5z" />
    <glyph glyph-name="uni0E0C" unicode="&#xe0c;" horiz-adv-x="798"
d="M721 576v-576h-65q-22 30 -63.5 59t-85.5 47q3 -9 3 -19q0 -41 -27 -69t-70 -28t-71 27.5t-28 69.5q0 36 24.5 63t63.5 31v201q0 147 -135 147q-54 0 -94.5 -26t-55.5 -74q38 -5 69.5 -17.5t48.5 -32.5v-13q-39 -11 -61.5 -38t-22.5 -67v-83q9 3 21 3q42 0 67.5 -28
t25.5 -68q0 -41 -27 -68t-71 -27t-71 27t-27 68q0 26 12 44v130q0 39 19.5 69t54.5 44q-39 15 -108 17q8 90 69 143.5t157 53.5q93 0 145.5 -52.5t52.5 -145.5v-211q46 -14 96 -40t84 -56v495h70zM446 52.5q13 13.5 13 34.5q0 22 -13 35t-35 13q-21 0 -34.5 -13t-13.5 -35
q0 -21 13.5 -34.5t34.5 -13.5q22 0 35 13.5zM202 120q-13 13 -35 13q-21 0 -34 -13t-13 -35q0 -21 13 -34.5t34 -13.5q22 0 35 13.5t13 34.5q0 22 -13 35z" />
    <glyph glyph-name="uni0E0D" unicode="&#xe0d;" horiz-adv-x="823"
d="M171.5 502.5q-38.5 -26.5 -54.5 -73.5q38 -4 70 -18t48 -32v-14q-39 -10 -61.5 -38t-22.5 -66v-91q15 9 38 9q41 0 67.5 -26t26.5 -68t-27.5 -68.5t-70.5 -26.5q-46 0 -75 28.5t-29 73.5v167q0 37 20 68t54 45q-38 15 -108 17q8 91 66.5 144t156.5 53t152.5 -53.5
t54.5 -146.5v-264q0 -36 27.5 -55.5t73.5 -19.5t72.5 19.5t26.5 55.5v454h69v-452q0 -64 -45.5 -99t-123.5 -35t-123.5 35.5t-45.5 100.5v253q0 70 -37.5 110t-104.5 40q-56 0 -94.5 -26.5zM152.5 118.5q-13.5 -13.5 -13.5 -33.5q0 -22 13.5 -35t34.5 -13t34.5 13t13.5 35
q0 20 -13.5 33.5t-34.5 13.5t-34.5 -13.5zM748 -49q-2 -95 -50 -148.5t-136 -53.5q-73 0 -118 34.5t-45 86.5q0 37 23.5 60t59.5 23q38 0 61.5 -21.5t23.5 -57.5q0 -24 -13 -43t-36 -26q18 -9 43 -9q57 0 90 40t34 115h63zM456 -154.5q10 -10.5 26 -10.5q18 0 28 10.5
t10 27.5t-10 27.5t-28 10.5q-16 0 -26 -10.5t-10 -27.5t10 -27.5z" />
    <glyph glyph-name="uni0E0E" unicode="&#xe0e;" horiz-adv-x="608"
d="M474 532q57 -54 57 -146v-702h-67q-18 33 -61 64t-93 52q-11 -53 -40.5 -85t-79.5 -32q-46 0 -75 23.5t-29 65.5q0 45 33.5 72t92.5 27q25 0 57 -8q6 23 16 40.5t30 31.5l43 -23q-29 -21 -39 -65q41 -17 79 -40.5t64 -48.5v621q0 70 -39.5 110t-107.5 40q-57 0 -98 -27
t-56 -73q38 -4 70.5 -17.5t48.5 -32.5v-13q-36 -10 -54 -36.5t-18 -62.5q0 -24 11 -81q12 -66 12 -93q0 -46 -28.5 -74.5t-74.5 -28.5q-44 0 -71.5 26.5t-27.5 68.5t27 69t69 27q19 0 32 -6q-6 23 -10 48.5t-4 41.5q0 35 16 64.5t43 42.5q-18 7 -48 11.5t-63 5.5
q5 57 33.5 102t79 70t116.5 25q97 0 154 -54zM160 51q14 14 14 34q0 21 -14 34.5t-34 13.5q-21 0 -34.5 -13.5t-13.5 -34.5q0 -20 13.5 -34t34.5 -14q20 0 34 14zM235.5 -248q15.5 23 24.5 65q-29 8 -50 8q-31 0 -49.5 -12.5t-18.5 -37.5q0 -22 12 -34t36 -12q30 0 45.5 23z
" />
    <glyph glyph-name="uni0E0F" unicode="&#xe0f;" horiz-adv-x="608"
d="M474 532q57 -54 57 -146v-702h-67l-80 95l-64 -95q1 -2 -13 16q-40 51 -60 71q-7 -44 -33 -68.5t-68 -24.5q-45 0 -71.5 25.5t-26.5 66.5q0 44 30 70t76 26q21 0 47 -7q10 51 60 80l43 -27q-49 -31 -54 -79q33 -26 69 -75l61 89l82 -92v624q0 70 -39.5 110t-107.5 40
q-57 0 -98 -27t-56 -73q38 -4 70.5 -17.5t48.5 -32.5v-13q-36 -10 -54 -36.5t-18 -62.5q0 -24 11 -81q12 -66 12 -93q0 -46 -28.5 -74.5t-74.5 -28.5q-44 0 -71.5 26.5t-27.5 68.5t27 69t69 27q19 0 32 -6q-6 23 -10 48.5t-4 41.5q0 35 16 64.5t43 42.5q-18 7 -48 11.5
t-63 5.5q5 57 33.5 102t79 70t116.5 25q97 0 154 -54zM160 51q14 14 14 34q0 21 -14 34.5t-34 13.5q-21 0 -34.5 -13.5t-13.5 -34.5q0 -20 13.5 -34t34.5 -14q20 0 34 14zM184.5 -254.5q13.5 19.5 13.5 63.5q-22 10 -43 10q-25 0 -40 -13.5t-15 -35.5q0 -21 11.5 -32.5
t32.5 -11.5q27 0 40.5 19.5z" />
    <glyph glyph-name="uni0E10" unicode="&#xe10;" horiz-adv-x="527"
d="M139.5 515.5q-20.5 -17.5 -25.5 -47.5q73 -10 142.5 -26t105.5 -31q86 -36 86 -92v-201q0 -61 -35.5 -94.5t-100.5 -33.5t-100 33t-35 95v66q-15 -6 -32 -6q-38 0 -62.5 25t-24.5 64q0 38 25.5 62.5t66.5 24.5q43 0 68.5 -25.5t25.5 -67.5v-146q0 -33 17.5 -50.5
t49.5 -17.5q33 0 50.5 17.5t17.5 50.5v188q0 35 -50 58q-38 16 -121.5 34t-168.5 27q1 77 41.5 120.5t107.5 43.5q38 0 130 -22q54 -13 65 -13q16 0 27 10t14 27l54 -12q-9 -39 -32.5 -60t-57.5 -21q-13 0 -38.5 5.5t-52.5 12.5q-80 20 -108 20q-29 0 -49.5 -17.5z
M116.5 235.5q12.5 -12.5 31.5 -12.5q20 0 32 12.5t12 31.5t-12 31t-32 12t-32 -12t-12 -31t12.5 -31.5zM422.5 -94q21.5 -19 21.5 -47v-169h-66l-58 38l-69 -38q-38 55 -68 79q-13 -41 -35 -63t-67 -22q-40 0 -64 21.5t-24 56.5q0 38 29.5 59.5t77.5 21.5q26 0 50 -8
q7 34 18 56.5t33 34.5l43 -26q-19 -12 -29.5 -33t-19.5 -55q33 -23 70 -71l59 31l61 -38v61q-4 -2 -19 -2q-31 0 -51 18.5t-20 47.5t20.5 47.5t53.5 18.5q32 0 53.5 -19zM384 -163.5q8 8.5 8 22.5t-8 22.5t-21 8.5t-21.5 -9t-8.5 -22t8.5 -22t21.5 -9t21 8.5zM122 -253
q12 16 19 46q-18 7 -40 7q-25 0 -40 -9t-15 -27q0 -15 10.5 -24t28.5 -9q25 0 37 16z" />
    <glyph glyph-name="uni0E11" unicode="&#xe11;" horiz-adv-x="687"
d="M586.5 560q23.5 -26 23.5 -82v-478h-69v488q0 41 -30 41q-14 0 -23 -9.5t-17 -29.5l-189 -490h-74v212q0 29 10.5 56.5t32.5 68.5q21 41 31.5 67t10.5 54q0 52 -42 70l-56 -57l-62 56q-42 -28 -51 -87q19 12 41 12q39 0 63.5 -24.5t24.5 -63.5q0 -40 -25.5 -64.5
t-65.5 -24.5q-46 0 -74.5 35.5t-28.5 92.5q0 65 33 116t86 67l60 -58l57 58q50 -9 77 -43t27 -86q0 -34 -11 -63t-32 -68q-19 -35 -28.5 -59.5t-9.5 -51.5q0 -84 -5 -125l33 113l112 296q16 44 40 65.5t61 21.5q46 0 69.5 -26zM88 396.5q-12 -12.5 -12 -32.5t12.5 -33
t31.5 -13q20 0 33 13t13 33t-13 32.5t-33 12.5t-32 -12.5z" />
    <glyph glyph-name="uni0E12" unicode="&#xe12;" horiz-adv-x="815"
d="M738 576v-576h-66q-22 32 -59 62t-78 47q3 -12 3 -24q0 -40 -27 -67.5t-70 -27.5q-44 0 -71.5 27.5t-27.5 68.5q0 36 24 62.5t64 32.5v200q0 105 -65 144l-89 -80l-93 82q-34 -22 -51.5 -58.5t-17.5 -85.5q0 -23 7 -58.5t16 -70.5q23 -88 23 -124v-16q16 23 64 65
q39 37 47 46q-35 2 -56.5 25t-21.5 57q0 37 24.5 61t62.5 24q39 0 63.5 -25t24.5 -63t-24.5 -70.5t-73.5 -77.5q-50 -46 -76.5 -80t-31.5 -76h-67v130q0 15 -6.5 43.5t-14.5 59.5q-14 56 -21 88.5t-7 59.5q0 73 39 132t106 73l86 -81l83 81q62 -10 100 -65.5t38 -133.5v-210
q45 -12 91 -37.5t79 -57.5v494h70zM250.5 276q12.5 -12 31.5 -12t31 12t12 31t-12 31t-31 12q-20 0 -32 -12t-12 -31t12.5 -31zM474 52q13 13 13 35t-13 35t-35 13t-35 -13t-13 -35t13 -35t35 -13t35 13z" />
    <glyph glyph-name="uni0E13" unicode="&#xe13;" horiz-adv-x="815"
d="M745.5 141q17.5 -23 17.5 -52q0 -44 -27.5 -71.5t-70.5 -27.5t-69.5 27t-26.5 70v6q-63 -31 -102 -93h-71v382q0 71 -32 109t-98 38q-55 0 -95 -27.5t-54 -72.5q38 -5 69.5 -17.5t48.5 -32.5v-14q-39 -11 -61.5 -38t-22.5 -66v-90q16 8 38 8q41 0 67.5 -26t26.5 -68
t-27.5 -68.5t-70.5 -26.5q-46 0 -75 28.5t-29 73.5v167q0 39 19 68.5t55 44.5q-39 15 -108 17q7 89 67.5 143t155.5 54q94 0 144 -52t50 -146v-312q36 42 102 75q40 20 60 34.5t31.5 35t11.5 52.5v303h69v-304q0 -65 -40 -98q30 -10 47.5 -33zM699.5 51q13.5 14 13.5 34
q0 21 -13.5 34.5t-34.5 13.5t-34.5 -13.5t-13.5 -34.5q0 -20 13.5 -34t34.5 -14t34.5 14zM152.5 118.5q-13.5 -13.5 -13.5 -33.5q0 -22 13.5 -35t34.5 -13t34.5 13t13.5 35q0 20 -13.5 33.5t-34.5 13.5t-34.5 -13.5z" />
    <glyph glyph-name="uni0E14" unicode="&#xe14;" horiz-adv-x="586"
d="M448.5 532.5q60.5 -53.5 60.5 -146.5v-386h-70v378q0 72 -41.5 111.5t-113.5 39.5q-56 0 -94 -22t-56.5 -56t-18.5 -69q0 -23 5.5 -49.5t17.5 -76.5q21 -76 21 -106v-31q22 33 97 103l18 17q-36 4 -58 27t-22 57q0 37 24 61t63 24q38 0 63 -24.5t25 -63.5t-24 -72
t-73 -81q-50 -49 -77.5 -85.5t-33.5 -81.5h-68v138q0 26 -20 99q-13 50 -20 84.5t-7 62.5q0 54 28 100t82 74t128 28q104 0 164.5 -53.5zM250 292q12 -12 32 -12q19 0 30.5 12t11.5 31t-11.5 31t-30.5 12q-20 0 -32 -12t-12 -31t12 -31z" />
    <glyph glyph-name="uni0E15" unicode="&#xe15;" horiz-adv-x="599"
d="M484.5 521.5q37.5 -53.5 37.5 -134.5v-387h-69v381q0 54 -15.5 89.5t-49.5 54.5l-101 -80l-104 82q-35 -22 -52 -57t-17 -87q0 -23 6 -52t18 -73q21 -78 21 -108q0 -27 -1 -41q16 23 43 48.5t77 69.5q-36 2 -58 25t-22 58q0 36 24.5 60t62.5 24t63 -24.5t25 -62.5
t-24 -69t-74 -77q-52 -46 -80 -81.5t-33 -79.5h-69v138q0 26 -20 99q-27 100 -27 144q0 79 38 134.5t107 70.5l96 -80l96 80q64 -11 101.5 -64.5zM254.5 278.5q12.5 -12.5 31.5 -12.5t30.5 12t11.5 32q0 18 -11.5 30t-30.5 12t-31.5 -12t-12.5 -30q0 -19 12.5 -31.5z" />
    <glyph glyph-name="uni0E16" unicode="&#xe16;" horiz-adv-x="575"
d="M439.5 531.5q58.5 -54.5 58.5 -145.5v-386h-69v379q0 69 -41 109.5t-111 40.5q-56 0 -100 -27.5t-60 -72.5q38 -4 70 -18t48 -32v-14q-39 -10 -61.5 -38t-22.5 -66v-90q16 8 38 8q41 0 67.5 -26t26.5 -68t-27.5 -68.5t-70.5 -26.5q-46 0 -75 28.5t-29 73.5v167
q0 37 20 68t54 45q-40 15 -108 17q8 90 72.5 143.5t163.5 53.5q98 0 156.5 -54.5zM152.5 118.5q-13.5 -13.5 -13.5 -33.5q0 -22 13.5 -35t34.5 -13t34.5 13t13.5 35q0 20 -13.5 33.5t-34.5 13.5t-34.5 -13.5z" />
    <glyph glyph-name="uni0E17" unicode="&#xe17;" horiz-adv-x="649"
d="M572 466v-466h-69v469q0 58 -39 58q-32 0 -45 -36l-184 -491h-73v404q-15 -9 -38 -9q-41 0 -67.5 27t-26.5 69t27.5 68.5t70.5 26.5q46 0 75 -28.5t29 -73.5v-287q0 -50 -8 -96l26 91l111 308q31 86 110 86q101 0 101 -120zM160.5 456.5q13.5 13.5 13.5 34.5
q0 20 -13.5 34t-34.5 14t-34.5 -14t-13.5 -34q0 -21 13.5 -34.5t34.5 -13.5t34.5 13.5z" />
    <glyph glyph-name="uni0E18" unicode="&#xe18;" horiz-adv-x="529"
d="M128.5 23q-49.5 33 -49.5 93v217h69v-218q0 -32 31 -50t89 -18q57 0 88 18t31 50v185q0 21 -14 35.5t-47 26.5q-38 14 -118.5 30t-159.5 23q1 81 42.5 126t110.5 45q26 0 55 -6t70 -16q53 -14 70 -14q35 0 43 37l53 -13q-10 -39 -33 -60t-55 -21q-23 0 -91 17
q-29 7 -58.5 13t-47.5 6q-32 0 -54 -17.5t-27 -49.5q74 -9 143 -24t105 -30q82 -34 82 -91v-201q0 -60 -49.5 -93t-138.5 -33q-90 0 -139.5 33z" />
    <glyph glyph-name="uni0E19" unicode="&#xe19;" horiz-adv-x="635"
d="M564.5 141q17.5 -23 17.5 -52q0 -44 -27.5 -71.5t-70.5 -27.5q-42 0 -69 27t-27 70v10q-44 -16 -86 -42t-66 -55h-74v404q-15 -9 -38 -9q-41 0 -67.5 27t-26.5 69t27.5 68.5t70.5 26.5q46 0 75 -28.5t29 -73.5v-416q34 36 121 71q58 25 86.5 45t38.5 40.5t10 51.5v300h69
v-304q0 -33 -11 -58t-30 -40q31 -10 48.5 -33zM160.5 456.5q13.5 13.5 13.5 34.5q0 20 -13.5 34t-34.5 14t-34.5 -14t-13.5 -34q0 -21 13.5 -34.5t34.5 -13.5t34.5 13.5zM518.5 51q13.5 14 13.5 34q0 21 -13.5 34.5t-34.5 13.5t-34 -13.5t-13 -34.5t13 -34.5t34 -13.5
t34.5 14z" />
    <glyph glyph-name="uni0E1A" unicode="&#xe1a;" horiz-adv-x="642"
d="M565 576v-453q0 -63 -53 -98t-148 -35t-148.5 35t-53.5 98v281q-15 -9 -38 -9q-41 0 -67.5 27t-26.5 69t27.5 68.5t70.5 26.5q46 0 75 -28.5t29 -73.5v-356q0 -38 35 -59.5t97 -21.5t96.5 21.5t34.5 59.5v448h70zM160.5 456.5q13.5 13.5 13.5 34.5q0 20 -13.5 34
t-34.5 14t-34.5 -14t-13.5 -34q0 -21 13.5 -34.5t34.5 -13.5t34.5 13.5z" />
    <glyph glyph-name="uni0E1B" unicode="&#xe1b;" horiz-adv-x="649"
d="M571 811v-688q0 -63 -53 -98t-150 -35q-96 0 -151 35t-55 98v281q-15 -9 -38 -9q-41 0 -67.5 27t-26.5 69t27.5 68.5t70.5 26.5q46 0 75 -28.5t29 -73.5v-356q0 -38 36.5 -59.5t99.5 -21.5q64 0 99 21.5t35 59.5v683h69zM160.5 456.5q13.5 13.5 13.5 34.5q0 20 -13.5 34
t-34.5 14t-34.5 -14t-13.5 -34q0 -21 13.5 -34.5t34.5 -13.5t34.5 13.5z" />
    <glyph glyph-name="uni0E1C" unicode="&#xe1c;" horiz-adv-x="613"
d="M535 576v-576h-73l-158 230l-158 -230h-73v484q0 45 28.5 73.5t74.5 28.5q43 0 70.5 -26.5t27.5 -68.5t-26 -69t-68 -27q-19 0 -37 8v-306l137 195h49l137 -195v479h69zM143.5 525q-13.5 -14 -13.5 -34q0 -21 13.5 -34.5t34.5 -13.5q22 0 35 13.5t13 34.5t-13.5 34.5
t-34.5 13.5t-34.5 -14z" />
    <glyph glyph-name="uni0E1D" unicode="&#xe1d;" horiz-adv-x="613"
d="M535 811v-811h-73l-158 230l-158 -230h-73v484q0 45 28.5 73.5t74.5 28.5q43 0 70.5 -26.5t27.5 -68.5t-26 -69t-68 -27q-19 0 -37 8v-306l137 195h49l137 -195v714h69zM143.5 525q-13.5 -14 -13.5 -34q0 -21 13.5 -34.5t34.5 -13.5q22 0 35 13.5t13 34.5t-13.5 34.5
t-34.5 13.5t-34.5 -14z" />
    <glyph glyph-name="uni0E1E" unicode="&#xe1e;" horiz-adv-x="713"
d="M636 576v-576h-75l-162 490l-161 -490h-75v404q-17 -9 -39 -9q-41 0 -67.5 27t-26.5 69t27.5 68.5t70.5 26.5q46 0 75 -28.5t29 -73.5v-288q0 -25 -5 -82l21 83l123 375h58l122 -375l21 -83q-5 57 -5 82v380h69zM160.5 456.5q13.5 13.5 13.5 34.5q0 20 -13.5 34t-34.5 14
t-34.5 -14t-13.5 -34q0 -21 13.5 -34.5t34.5 -13.5t34.5 13.5z" />
    <glyph glyph-name="uni0E1F" unicode="&#xe1f;" horiz-adv-x="713"
d="M636 811v-811h-75l-162 490l-161 -490h-75v404q-17 -9 -39 -9q-41 0 -67.5 27t-26.5 69t27.5 68.5t70.5 26.5q46 0 75 -28.5t29 -73.5v-288q0 -25 -5 -82l21 83l123 375h58l122 -375l21 -83q-5 57 -5 82v615h69zM160.5 456.5q13.5 13.5 13.5 34.5q0 20 -13.5 34t-34.5 14
t-34.5 -14t-13.5 -34q0 -21 13.5 -34.5t34.5 -13.5t34.5 13.5z" />
    <glyph glyph-name="uni0E20" unicode="&#xe20;" horiz-adv-x="611"
d="M475.5 532q57.5 -54 57.5 -146v-386h-69v379q0 70 -39.5 110t-109.5 40q-56 0 -97.5 -27t-56.5 -73q38 -4 70.5 -17.5t48.5 -32.5v-13q-36 -10 -54 -36.5t-18 -62.5q0 -25 11 -82q12 -66 12 -93q0 -46 -28.5 -74t-74.5 -28q-44 0 -71.5 26.5t-27.5 68.5t27 69t69 27
q19 0 32 -6q-14 53 -14 90q0 35 16 64.5t43 42.5q-18 7 -48 11.5t-63 5.5q5 57 34 102t79 70t116 25q98 0 155.5 -54zM160 51q14 14 14 34q0 21 -14 34.5t-34 13.5q-21 0 -34.5 -13.5t-13.5 -34.5q0 -20 13.5 -34t34.5 -14q20 0 34 14z" />
    <glyph glyph-name="uni0E21" unicode="&#xe21;" horiz-adv-x="608"
d="M530 576v-576h-66q-44 38 -102.5 68.5t-107.5 43.5q3 -10 3 -22q0 -44 -29 -72t-74 -28t-73 27.5t-28 71.5t28 71t74 27q6 0 18 -2v219q-15 -9 -38 -9q-41 0 -67 27t-26 69t27.5 68.5t70.5 26.5q46 0 74.5 -28.5t28.5 -73.5v-309q61 -16 119 -44.5t99 -59.5v505h69z
M172 456.5q14 13.5 14 34.5q0 20 -14 34t-35 14t-34 -13.5t-13 -34.5t13 -34.5t34 -13.5t35 13.5zM188 53q14 14 14 36q0 21 -14 34.5t-36 13.5q-21 0 -35 -13.5t-14 -34.5q0 -22 14 -36t35 -14q22 0 36 14z" />
    <glyph glyph-name="uni0E22" unicode="&#xe22;" horiz-adv-x="566"
d="M489 576v-440q0 -69 -56 -107.5t-156 -38.5t-155.5 38.5t-55.5 107.5v69q0 34 17.5 61t50.5 42q-38 17 -58 54.5t-20 83.5q0 64 32.5 102t87.5 38q44 0 70 -24t26 -64t-24.5 -63.5t-65.5 -23.5q-36 0 -60 22q1 -41 24.5 -69t57.5 -28h89v-56h-90q-31 0 -49.5 -20.5
t-18.5 -55.5v-65q0 -43 37.5 -67.5t104.5 -24.5t104.5 24t37.5 68v437h70zM147 531q-13 -13 -13 -33t13 -33t33 -13t33 13t13 33t-13 33t-33 13t-33 -13z" />
    <glyph glyph-name="uni0E23" unicode="&#xe23;" horiz-adv-x="479"
d="M134 510q-20 -19 -23 -50q113 -16 193 -49.5t80 -84.5v-234q0 -45 -28.5 -73.5t-74.5 -28.5q-43 0 -70.5 26.5t-27.5 68.5t26 69t68 27q22 0 38 -9v146q0 29 -72.5 54.5t-205.5 43.5q1 80 38.5 125t99.5 45q26 0 51.5 -6t58.5 -16q43 -13 57 -13t24 10t15 28l54 -15
q-11 -39 -32.5 -59.5t-50.5 -20.5q-14 0 -35.5 5t-42.5 11q-5 1 -26 7t-38 9t-30 3q-26 0 -46 -19zM313.5 51q13.5 14 13.5 34q0 21 -13.5 34.5t-34.5 13.5q-22 0 -35 -13.5t-13 -34.5t13.5 -34.5t34.5 -13.5t34.5 14z" />
    <glyph glyph-name="uni0E24" unicode="&#xe24;" horiz-adv-x="575"
d="M439.5 531.5q58.5 -54.5 58.5 -145.5v-636h-69v629q0 69 -41 109.5t-111 40.5q-56 0 -100 -27.5t-60 -72.5q38 -4 70 -18t48 -32v-14q-39 -10 -61.5 -38t-22.5 -66v-90q16 8 38 8q41 0 67.5 -26t26.5 -68t-27.5 -68.5t-70.5 -26.5q-46 0 -75 28.5t-29 73.5v167
q0 37 20 68t54 45q-40 15 -108 17q8 90 72.5 143.5t163.5 53.5q98 0 156.5 -54.5zM152.5 118.5q-13.5 -13.5 -13.5 -33.5q0 -22 13.5 -35t34.5 -13t34.5 13t13.5 35q0 20 -13.5 33.5t-34.5 13.5t-34.5 -13.5z" />
    <glyph glyph-name="uni0E25" unicode="&#xe25;" horiz-adv-x="573"
d="M435 539.5q61 -46.5 61 -123.5v-416h-69v240q0 48 -44 76t-104 28q-57 0 -95 -28t-38 -76v-68q15 9 38 9q41 0 67 -27t26 -69t-27.5 -68.5t-70.5 -26.5q-46 0 -74.5 28.5t-28.5 73.5v148q0 48 26.5 84t72 55.5t102.5 19.5q42 0 83 -14.5t66 -43.5v78q0 50 -42 80t-111 30
q-67 0 -112.5 -28t-55.5 -75h-67q7 73 71 116.5t164 43.5q101 0 162 -46.5zM146.5 120q-13.5 -13 -13.5 -35q0 -21 13.5 -34.5t35.5 -13.5q21 0 34 13.5t13 34.5q0 22 -13 35t-34 13q-22 0 -35.5 -13z" />
    <glyph glyph-name="uni0E26" unicode="&#xe26;" horiz-adv-x="608"
d="M474 532q57 -54 57 -146v-636h-69v629q0 70 -39.5 110t-107.5 40q-57 0 -98 -27t-56 -73q38 -4 70.5 -17.5t48.5 -32.5v-13q-36 -10 -54 -36.5t-18 -62.5q0 -24 11 -81q12 -66 12 -93q0 -46 -28.5 -74.5t-74.5 -28.5q-44 0 -71.5 26.5t-27.5 68.5t27 69t69 27q19 0 32 -6
q-6 23 -10 48.5t-4 41.5q0 35 16 64.5t43 42.5q-18 7 -48 11.5t-63 5.5q5 57 33.5 102t79 70t116.5 25q97 0 154 -54zM160 51q14 14 14 34q0 21 -14 34.5t-34 13.5q-21 0 -34.5 -13.5t-13.5 -34.5q0 -20 13.5 -34t34.5 -14q20 0 34 14z" />
    <glyph glyph-name="uni0E27" unicode="&#xe27;" horiz-adv-x="503"
d="M373 540q53 -46 53 -126v-322q0 -45 -29 -73.5t-74 -28.5q-44 0 -71.5 26.5t-27.5 68.5t26.5 69t68.5 27q22 0 38 -9v234q0 57 -34.5 90t-95.5 33q-55 0 -93 -28.5t-46 -76.5h-69q9 75 66 118.5t144 43.5q91 0 144 -46zM355 50.5q13 13.5 13 34.5q0 22 -13 35t-35 13
t-35 -13t-13 -35q0 -21 13 -34.5t35 -13.5t35 13.5z" />
    <glyph glyph-name="uni0E28" unicode="&#xe28;" horiz-adv-x="595"
d="M517 397v-397h-68v390q0 51 -29 86q-38 -38 -92 -75q24 -10 37.5 -30t13.5 -48q0 -39 -24 -63t-62 -24q-26 0 -48 12.5t-31 35.5q-22 -33 -37.5 -86.5t-15.5 -96.5v-101h-69v141q0 22 -9 58.5t-11 42.5q-26 94 -26 138q0 95 65 150.5t176 55.5q74 0 131 -27q24 40 29 73
h82q-12 -47 -62 -108q50 -50 50 -127zM379 509q-37 20 -92 20q-81 0 -126.5 -41t-45.5 -113q0 -31 16 -105l9 -44q14 70 45.5 119t77.5 60q71 53 116 104zM321.5 291q11.5 12 11.5 32q0 19 -11.5 30.5t-30.5 11.5t-31 -11.5t-12 -30.5q0 -20 12 -32t31 -12t30.5 12z" />
    <glyph glyph-name="uni0E29" unicode="&#xe29;" horiz-adv-x="665"
d="M634.5 298.5q-25.5 -26.5 -57.5 -43.5v-132q0 -64 -53 -98.5t-153 -34.5q-97 0 -153 35t-56 98v281q-15 -9 -38 -9q-41 0 -67.5 27t-26.5 69t27.5 68.5t70.5 26.5q46 0 75 -28.5t29 -73.5v-356q0 -38 37.5 -59.5t101.5 -21.5q67 0 102 21t35 60v100q-27 -6 -56 -6
q-73 0 -120 36t-47 91q0 36 23 58.5t59 22.5t58 -22t22 -57q0 -24 -13 -43t-32 -26q24 -11 53 -11q26 0 53 8v297h69v-261q39 28 61 73l38 -32q-16 -31 -41.5 -57.5zM160.5 456.5q13.5 13.5 13.5 34.5q0 20 -13.5 34t-34.5 14t-34.5 -14t-13.5 -34q0 -21 13.5 -34.5
t34.5 -13.5t34.5 13.5zM338.5 322q10.5 -11 27.5 -11t27.5 11t10.5 28t-10.5 27.5t-27.5 10.5q-16 0 -27 -10.5t-11 -27.5t10.5 -28z" />
    <glyph glyph-name="uni0E2A" unicode="&#xe2a;" horiz-adv-x="573"
d="M454 523q42 -44 42 -107v-416h-69v231q0 47 -44 75.5t-104 28.5q-57 0 -95 -28t-38 -76v-59q15 9 38 9q41 0 67 -27t26 -69t-27.5 -68.5t-70.5 -26.5q-46 0 -74.5 28.5t-28.5 73.5v139q0 61 41 101t108 52q85 63 141 125q-38 20 -93 20q-67 0 -112.5 -28t-55.5 -75h-67
q7 73 71 116.5t164 43.5q77 0 133 -28q29 42 34 74h82q-11 -45 -68 -109zM426 419q0 33 -18 57q-46 -45 -107 -88q36 -4 69.5 -18t55.5 -37v86zM146.5 120q-13.5 -13 -13.5 -35q0 -21 13.5 -34.5t35.5 -13.5q21 0 34 13.5t13 34.5q0 22 -13 35t-34 13q-22 0 -35.5 -13z" />
    <glyph glyph-name="uni0E2B" unicode="&#xe2b;" horiz-adv-x="633"
d="M562.5 443.5q-11.5 -21.5 -31.5 -33.5q24 -28 24 -85v-325h-69v331q0 50 -32 50q-12 0 -23.5 -9.5t-23.5 -31.5l-184 -340h-61v404q-15 -9 -38 -9q-41 0 -67.5 27t-26.5 69t27.5 68.5t70.5 26.5q46 0 75 -28.5t29 -73.5v-297q0 -30 -4 -54.5t-5 -31.5l137 258
q13 24 25 38.5t27 22.5q-30 25 -30 71q0 42 27 68.5t69 26.5t69 -26.5t27 -68.5q0 -26 -11.5 -47.5zM160.5 456.5q13.5 13.5 13.5 34.5q0 20 -13.5 34t-34.5 14t-34.5 -14t-13.5 -34q0 -21 13.5 -34.5t34.5 -13.5t34.5 13.5zM443.5 525q-13.5 -14 -13.5 -34
q0 -21 13.5 -34.5t34.5 -13.5t34.5 13.5t13.5 34.5q0 20 -13.5 34t-34.5 14t-34.5 -14z" />
    <glyph glyph-name="uni0E2C" unicode="&#xe2c;" horiz-adv-x="713"
d="M627 551q9 -19 9 -45v-506h-76l-161 298l-160 -298h-76v404q-17 -9 -39 -9q-41 0 -67.5 27t-26.5 69t27.5 68.5t70.5 26.5q46 0 75 -28.5t29 -73.5v-305q0 -29 -5 -86l146 271h54l145 -271q-5 57 -5 86v247q-16 -9 -38 -9q-42 0 -68 27t-26 69t27.5 68.5t70.5 26.5
q30 0 54 -13q22 20 23 50h72q-7 -55 -55 -94zM565.5 478.5q13.5 13.5 13.5 34.5q0 20 -13.5 34t-34.5 14t-34.5 -13.5t-13.5 -34.5t13 -34.5t35 -13.5q21 0 34.5 13.5zM160.5 456.5q13.5 13.5 13.5 34.5q0 20 -13.5 34t-34.5 14t-34.5 -14t-13.5 -34q0 -21 13.5 -34.5
t34.5 -13.5t34.5 13.5z" />
    <glyph glyph-name="uni0E2D" unicode="&#xe2d;" horiz-adv-x="582"
d="M444.5 540q59.5 -46 59.5 -124v-286q0 -67 -53 -103.5t-149 -36.5q-97 0 -149 36.5t-52 103.5v167q0 44 28.5 72.5t73.5 28.5q44 0 71.5 -26.5t27.5 -68.5t-26.5 -68.5t-67.5 -26.5q-22 0 -38 8v-79q0 -43 35.5 -66.5t99.5 -23.5q63 0 96.5 23.5t33.5 67.5v280
q0 51 -41.5 81t-111.5 30q-67 0 -112.5 -28t-55.5 -75h-67q8 73 72.5 116.5t164.5 43.5q101 0 160.5 -46zM171.5 337q-13.5 -13 -13.5 -34t13.5 -34t34.5 -13t34.5 13t13.5 34t-13.5 34t-34.5 13t-34.5 -13z" />
    <glyph glyph-name="uni0E2E" unicode="&#xe2e;" horiz-adv-x="559"
d="M470 470q9 -27 9 -59v-279q0 -68 -53 -105t-150 -37q-98 0 -151 37t-53 105v125q0 45 28.5 73.5t73.5 28.5q43 0 70.5 -27t27.5 -68q0 -42 -26.5 -68.5t-67.5 -26.5q-23 0 -38 9v-41q0 -43 36 -66.5t101 -23.5t99 24t34 68v266q0 15 -1 21q-72 -36 -175 -36
q-82 0 -131 24.5t-49 69.5q0 47 54.5 74.5t142.5 27.5q62 0 110 -16t76 -47q20 29 21 66h67q-7 -70 -55 -119zM392 479q-34 57 -145 57q-58 0 -93.5 -14.5t-35.5 -37.5q0 -20 31.5 -30.5t81.5 -10.5q102 0 161 36zM142 298q-13 -13 -13 -34t13 -34.5t35 -13.5
q20 0 33.5 13.5t13.5 34.5t-13.5 34t-33.5 13q-22 0 -35 -13z" />
    <glyph glyph-name="uni0E2F" unicode="&#xe2f;" horiz-adv-x="535"
d="M434.5 553q23.5 -23 23.5 -68v-485h-69v476q0 22 -10.5 31.5t-33.5 10.5q-26 -64 -76 -100t-111 -36q-59 0 -93 29.5t-34 77.5q0 43 27.5 70t71.5 27t71 -26.5t27 -68.5q0 -26 -14 -45q75 26 96 130h57q44 0 67.5 -23zM163.5 456.5q13.5 13.5 13.5 34.5q0 20 -13.5 34
t-34.5 14q-20 0 -33.5 -14t-13.5 -34q0 -21 13.5 -34.5t33.5 -13.5q21 0 34.5 13.5z" />
    <glyph glyph-name="uni0E30" unicode="&#xe30;" horiz-adv-x="529"
d="M101 365q-53 35 -53 92q0 43 28 70t71 27q42 0 69.5 -27.5t27.5 -69.5q0 -22 -11.5 -40t-31.5 -29q12 -4 32 -4q73 0 113.5 47t43.5 131h68q-4 -105 -63 -168.5t-162 -63.5q-79 0 -132 35zM179.5 426.5q12.5 12.5 12.5 33.5t-12.5 33.5t-33.5 12.5t-33.5 -12.5
t-12.5 -33.5t12.5 -33.5t33.5 -12.5t33.5 12.5zM101 59.5q-53 35.5 -53 92.5q0 42 28 69.5t71 27.5q41 0 69 -27.5t28 -69.5q0 -46 -43 -70q12 -4 32 -4q73 1 113.5 48t43.5 131h68q-4 -105 -63 -169t-162 -64q-79 0 -132 35.5zM179.5 121q12.5 13 12.5 34q0 20 -12.5 33
t-33.5 13t-33.5 -13t-12.5 -33q0 -21 12.5 -34t33.5 -13t33.5 13z" />
    <glyph glyph-name="uni0E31" unicode="&#xe31;"
d="M74 914q-1 -70 -32 -122.5t-85 -81.5t-123 -29q-85 0 -136 36.5t-51 94.5q0 40 26 65t67 25t67.5 -25.5t26.5 -65.5q0 -26 -12 -46.5t-32 -31.5q19 -4 46 -4q80 0 127.5 51.5t48.5 133.5h62zM-293.5 779q13.5 -13 33.5 -13t33.5 13t13.5 34q0 19 -13.5 32t-33.5 13
t-33.5 -13t-13.5 -32q0 -21 13.5 -34z" />
    <glyph glyph-name="uni0E32" unicode="&#xe32;" horiz-adv-x="476"
d="M329 432q0 45 -29 71t-80 26q-53 0 -84.5 -29t-31.5 -79h-68q0 77 49.5 121t134.5 44q83 0 131 -41t48 -113v-432h-70v432z" />
    <glyph glyph-name="uni0E33" unicode="&#xe33;" horiz-adv-x="476"
d="M-199.5 706q-30.5 31 -30.5 79t30.5 78.5t79.5 30.5t80.5 -30.5t31.5 -78.5t-31.5 -79t-80.5 -31t-79.5 31zM-74 738q18 18 18 47t-18 46.5t-46 17.5q-27 0 -44.5 -18t-17.5 -46t17.5 -46.5t44.5 -18.5q28 0 46 18zM329 432q0 45 -29 71t-80 26q-53 0 -84.5 -29
t-31.5 -79h-68q0 77 49.5 121t134.5 44q83 0 131 -41t48 -113v-432h-70v432z" />
    <glyph glyph-name="uni0E34" unicode="&#xe34;"
d="M-237 710q-89 15 -172 15q-62 0 -105 -7q6 77 63 124t145 47q98 0 161.5 -60t74.5 -163q-78 29 -167 44zM-202 812q-44 29 -105 29q-52 0 -89 -21t-50 -55q33 3 66 3q63 0 129 -11t116 -30q-23 56 -67 85z" />
    <glyph glyph-name="uni0E35" unicode="&#xe35;"
d="M-70 666q-78 29 -167 44t-172 15q-62 0 -105 -7q6 77 63 124t145 47q51 0 94 -17t74 -49v128h60v-240q4 -15 8 -45zM-251 757q66 -11 116 -30q-23 56 -67 85t-105 29q-52 0 -89 -21t-50 -55q33 3 66 3q63 0 129 -11z" />
    <glyph glyph-name="uni0E36" unicode="&#xe36;"
d="M-55 809q-21 -21 -55 -22q33 -51 40 -121q-78 29 -167 44t-172 15q-62 0 -105 -7q6 77 63 124t145 47q66 0 117 -28v2q0 33 21.5 54t55.5 21t56 -21t22 -54t-21 -54zM-84 835q11 11 11 28t-11 27.5t-28 10.5t-27.5 -10.5t-10.5 -27.5t10.5 -28t27.5 -11t28 11zM-251 757
q66 -11 116 -30q-23 56 -67 85t-105 29q-52 0 -89 -21t-50 -55q33 3 66 3q63 0 129 -11z" />
    <glyph glyph-name="uni0E37" unicode="&#xe37;"
d="M-70 666q-78 29 -167 44t-172 15q-62 0 -105 -7q6 77 63 124t145 47q26 0 54 -5v67h52v-84q41 -20 69 -52v136h53v-240q4 -15 8 -45zM-251 757q66 -11 116 -30q-23 56 -67 85t-105 29q-52 0 -89 -21t-50 -55q33 3 66 3q63 0 129 -11z" />
    <glyph glyph-name="uni0E38" unicode="&#xe38;"
d="M-142 -211q-12 -6 -33 -6q-35 0 -57 22t-22 56t24.5 56.5t62.5 22.5q40 0 65 -23t25 -57v-183h-65v112zM-147.5 -166q10.5 10 10.5 27t-10.5 27.5t-26.5 10.5t-26.5 -10.5t-10.5 -27.5t10 -27t27 -10q16 0 26.5 10z" />
    <glyph glyph-name="uni0E39" unicode="&#xe39;"
d="M-260.5 -305q-26.5 23 -26.5 64v30q-14 -6 -33 -6q-35 0 -56.5 21.5t-21.5 56.5t23 57t60 22q39 0 63.5 -21.5t24.5 -55.5v-105q0 -18 11 -28t34 -10q44 0 44 38v177h61v-175q0 -42 -27.5 -65t-79.5 -23q-50 0 -76.5 23zM-291.5 -165.5q10.5 10.5 10.5 26.5t-11 27
t-27 11t-26.5 -10.5t-10.5 -27.5t10 -27t27 -10t27.5 10.5z" />
    <glyph glyph-name="uni0E3A" unicode="&#xe3a;"
d="M-147.5 -143.5q-13.5 13.5 -13.5 34.5q0 22 13.5 35.5t34.5 13.5q22 0 35.5 -13.5t13.5 -35.5q0 -21 -13.5 -34.5t-35.5 -13.5q-21 0 -34.5 13.5z" />
    <glyph glyph-name="uni0E3F" unicode="&#xe3f;" horiz-adv-x="586"
d="M475.5 51.5q-53.5 -48.5 -165.5 -51.5v-77h-65v77h-159v700h159v69h65v-70q96 -8 143.5 -48.5t47.5 -116.5q0 -123 -112 -159v-2q73 -18 106.5 -59.5t33.5 -115.5q0 -98 -53.5 -146.5zM160 399h123q144 0 144 131q0 56 -38.5 82.5t-119.5 26.5h-109v-240zM419 94.5
q38 33.5 38 103.5q0 76 -47 109.5t-153 33.5h-97v-280h142q79 0 117 33.5z" />
    <glyph glyph-name="uni0E40" unicode="&#xe40;" horiz-adv-x="303"
d="M254 154q26 -27 26 -69t-27.5 -68.5t-70.5 -26.5q-46 0 -74.5 28.5t-28.5 73.5v484h69v-404q17 9 38 9q42 0 68 -27zM218.5 50.5q13.5 13.5 13.5 34.5t-13 34.5t-35 13.5q-21 0 -34.5 -13.5t-13.5 -34.5q0 -20 13.5 -34t34.5 -14t34.5 13.5z" />
    <glyph glyph-name="uni0E41" unicode="&#xe41;" horiz-adv-x="568"
d="M254 154q26 -27 26 -69t-27.5 -68.5t-70.5 -26.5q-46 0 -74.5 28.5t-28.5 73.5v484h69v-404q17 9 38 9q42 0 68 -27zM218.5 50.5q13.5 13.5 13.5 34.5t-13 34.5t-35 13.5q-21 0 -34.5 -13.5t-13.5 -34.5q0 -20 13.5 -34t34.5 -14t34.5 13.5zM519 154q26 -27 26 -69
t-27.5 -68.5t-70.5 -26.5q-46 0 -74.5 28.5t-28.5 73.5v484h69v-404q17 9 38 9q42 0 68 -27zM483.5 50.5q13.5 13.5 13.5 34.5t-13 34.5t-35 13.5q-21 0 -34.5 -13.5t-13.5 -34.5q0 -20 13.5 -34t34.5 -14t34.5 13.5z" />
    <glyph glyph-name="uni0E42" unicode="&#xe42;" horiz-adv-x="368"
d="M315 154q26 -27 26 -69t-27.5 -68.5t-70.5 -26.5q-46 0 -74.5 28.5t-28.5 73.5v606q0 27 -26.5 52.5t-68.5 42.5t-86 20q1 73 39.5 110.5t96.5 37.5q26 0 48 -7t54 -21q14 -7 27.5 -12t22.5 -5q26 0 32 37l54 -12q-8 -39 -28.5 -60.5t-49.5 -21.5q-18 0 -36 6t-42 17
q-30 12 -46.5 17.5t-34.5 5.5q-24 0 -42.5 -15t-21.5 -39q86 -24 132 -62.5t46 -92.5v-524q15 9 38 9q41 0 67 -27zM280 50.5q13 13.5 13 34.5t-13 34.5t-34 13.5t-35 -13.5t-14 -34.5q0 -20 14 -34t35 -14t34 13.5z" />
    <glyph glyph-name="uni0E43" unicode="&#xe43;" horiz-adv-x="364"
d="M311.5 154q26.5 -27 26.5 -69t-27.5 -68.5t-70.5 -26.5q-46 0 -75 28.5t-29 73.5v576q0 34 7.5 58t22.5 55q11 24 16 37t5 30q0 34 -25 53.5t-65 19.5q-48 0 -74 -29h7q36 0 59.5 -22.5t23.5 -57.5q0 -37 -24.5 -60t-62.5 -23q-39 0 -64 25.5t-25 70.5q0 65 46 106.5
t118 41.5q67 0 111 -33.5t44 -91.5q0 -20 -5 -35.5t-17 -39.5q-13 -27 -20.5 -50t-7.5 -57v-494q15 9 38 9q41 0 67.5 -27zM55.5 839.5q-11.5 11.5 -29.5 11.5t-29.5 -11.5t-11.5 -29.5t11.5 -29.5t29.5 -11.5t29.5 11.5t11.5 29.5t-11.5 29.5zM276.5 51q13.5 14 13.5 34
q0 21 -13.5 34.5t-34.5 13.5t-34.5 -13.5t-13.5 -34.5q0 -20 13.5 -34t34.5 -14t34.5 14z" />
    <glyph glyph-name="uni0E44" unicode="&#xe44;" horiz-adv-x="374"
d="M322.5 154q26.5 -27 26.5 -69t-27.5 -68.5t-71.5 -26.5q-45 0 -74 28.5t-29 73.5v788l-111 -156l-59 20q-6 88 -35 240h57q22 -102 28 -193l124 178h65v-797q17 9 38 9q42 0 68.5 -27zM287 51q14 14 14 34q0 21 -14 34.5t-34 13.5q-22 0 -35 -13.5t-13 -34.5t13.5 -34.5
t34.5 -13.5q20 0 34 14z" />
    <glyph glyph-name="uni0E45" unicode="&#xe45;" horiz-adv-x="290"
d="M144 432q0 45 -29.5 71t-79.5 26q-54 0 -85.5 -29t-31.5 -79h-68q0 76 49.5 120.5t135.5 44.5q83 0 130.5 -41t47.5 -113v-682h-69v682z" />
    <glyph glyph-name="uni0E46" unicode="&#xe46;" horiz-adv-x="607"
d="M477.5 521.5q32.5 -43.5 32.5 -104.5v-667h-69v667q0 39 -13.5 63.5t-47.5 44.5l-74 -55l-84 55q-28 -18 -43 -48.5t-19 -65.5q17 11 40 11q44 0 72 -27t28 -69t-28 -68.5t-72 -26.5q-54 0 -82.5 38.5t-28.5 104.5q0 72 35.5 130.5t100.5 81.5l80 -54l73 54
q67 -21 99.5 -64.5zM167 360q-13 -13 -13 -34t13 -34t33 -13q22 0 35 13t13 34t-13 34t-35 13q-20 0 -33 -13z" />
    <glyph glyph-name="uni0E47" unicode="&#xe47;"
d="M-122 816.5q20 -19.5 20 -50.5q0 -34 -22.5 -54.5t-60.5 -20.5q-66 0 -137 66q-16 -7 -37 -26.5t-37 -43.5q-31 16 -49 49.5t-18 71.5q0 51 37 84t95 33h101q35 0 53 25.5t20 76.5h55q-1 -71 -33.5 -111.5t-94.5 -40.5h-107q-30 0 -49.5 -18.5t-19.5 -46.5
q0 -15 4.5 -30.5t11.5 -25.5q14 18 34.5 32t40.5 19q35 -33 73 -57q-3 11 -3 21q0 29 20 48t51 19q32 0 52 -19.5zM-150.5 741.5q9.5 9.5 9.5 23.5t-9.5 23.5t-23.5 9.5t-23.5 -9.5t-9.5 -23.5t9.5 -23.5t23.5 -9.5t23.5 9.5z" />
    <glyph glyph-name="uni0E48" unicode="&#xe48;"
d="M-144 903h66v-212h-66v212z" />
    <glyph glyph-name="uni0E49" unicode="&#xe49;"
d="M30 940q-11 -75 -57 -131.5t-120 -87t-165 -30.5h-33v35q28 12 52 31.5t39 42.5q-10 -2 -18 -2q-36 0 -56.5 21.5t-20.5 56.5q0 33 23 54.5t59 21.5t59 -23.5t23 -61.5q0 -32 -17.5 -67t-46.5 -59q85 9 144.5 64t70.5 135h64zM-294.5 847q10.5 -11 27.5 -11q16 0 26.5 11
t10.5 27t-10.5 26.5t-26.5 10.5q-17 0 -27.5 -10.5t-10.5 -26.5t10.5 -27z" />
    <glyph glyph-name="uni0E4A" unicode="&#xe4a;"
d="M2 927q-1 -71 -28.5 -124.5t-77 -82.5t-114.5 -29v40q19 11 31.5 36.5t12.5 54.5q0 26 -11 45.5t-31 25.5l-63 -46l-62 45q-14 -7 -26 -22t-20 -33q11 3 20 3q33 0 54 -21t21 -53q0 -33 -21 -54t-54 -21q-39 0 -60.5 26.5t-21.5 69.5q0 55 30.5 98t79.5 55l60 -45l62 45
q45 -5 69.5 -37t24.5 -77q0 -52 -33 -88q44 16 69.5 66.5t25.5 122.5h63zM-343 791.5q-10 9.5 -26 9.5t-25.5 -10t-9.5 -26t9.5 -26t25.5 -10t26 10t10 26q0 17 -10 26.5z" />
    <glyph glyph-name="uni0E4B" unicode="&#xe4b;"
d="M9 778h-88v-87h-64v87h-89v50h89v87h64v-87h88v-50z" />
    <glyph glyph-name="uni0E4C" unicode="&#xe4c;"
d="M-6 969q0 -39 -21.5 -60.5t-65.5 -37.5l-79 -28q19 -9 30 -27t11 -42q0 -37 -23.5 -60t-61.5 -23q-37 0 -60.5 24t-23.5 62q0 37 21.5 59.5t47.5 33.5t86 30q40 13 60 28t20 41h59zM-185 742.5q11 11.5 11 29.5q0 17 -11 28t-28 11t-28 -11t-11 -28q0 -18 11 -29.5
t28 -11.5t28 11.5z" />
    <glyph glyph-name="uni0E4D" unicode="&#xe4d;"
d="M-199.5 706q-30.5 31 -30.5 79t30.5 78.5t79.5 30.5t80.5 -30.5t31.5 -78.5t-31.5 -79t-80.5 -31t-79.5 31zM-74 738q18 18 18 47t-18 46.5t-46 17.5q-27 0 -44.5 -18t-17.5 -46t17.5 -46.5t44.5 -18.5q28 0 46 18z" />
    <glyph glyph-name="uni0E4E" unicode="&#xe4e;"
d="M-269 703q-27 22 -27 59q0 35 26.5 59t71.5 28q-32 20 -32 58t32.5 61.5t86.5 23.5q39 0 70 -15l-15 -39q-34 10 -58 10q-29 0 -45.5 -12t-16.5 -32q0 -43 75 -55l-17 -36q-16 6 -43 6q-38 0 -60 -14t-22 -39q0 -21 15.5 -32t42.5 -11q28 0 54 11l3 -40q-34 -13 -68 -13
q-46 0 -73 22z" />
    <glyph glyph-name="uni0E4F" unicode="&#xe4f;" horiz-adv-x="619"
d="M181 23q-57 32 -89 89t-32 129t32 128.5t89 88.5t129 32t128.5 -32t88.5 -88.5t32 -128.5t-32 -129t-88.5 -89t-128.5 -32t-129 32zM417.5 59q47.5 27 74 74.5t26.5 107.5t-26.5 107.5t-74 74t-107.5 26.5t-107.5 -26.5t-74 -74t-26.5 -107.5t26.5 -107.5t74 -74.5
t107.5 -27t107.5 27zM208 138q-40 40 -40 103q0 62 40 102t102 40t102 -40t40 -102q0 -63 -40 -103t-102 -40t-102 40zM385.5 165q29.5 30 29.5 76t-29.5 75.5t-75.5 29.5t-75.5 -29.5t-29.5 -75.5t29.5 -76t75.5 -30t75.5 30z" />
    <glyph glyph-name="uni0E50" unicode="&#xe50;" horiz-adv-x="658"
d="M187 18.5q-62 28.5 -96.5 79t-34.5 114.5t34.5 114.5t96.5 79t142 28.5q81 0 143 -28.5t96 -79t34 -114.5t-34 -114.5t-96 -79t-143 -28.5q-80 0 -142 28.5zM437 67q47 21 73 59t26 86t-26 86t-73 59t-108 21t-107.5 -21t-72.5 -58.5t-26 -86.5t26 -86.5t72.5 -58.5
t107.5 -21t108 21z" />
    <glyph glyph-name="uni0E51" unicode="&#xe51;" horiz-adv-x="671"
d="M477 403q64 -31 101 -89t37 -137q0 -55 -19.5 -110t-54.5 -91h-80q41 33 64 86t23 108q0 63 -28 110t-77.5 72.5t-112.5 25.5q-60 0 -107 -22.5t-73.5 -63.5t-26.5 -94q0 -67 38.5 -111.5t100.5 -44.5q38 0 66.5 19t39.5 53q-18 -8 -41 -8q-41 0 -67.5 26t-26.5 67
t27.5 67.5t70.5 26.5q49 0 77 -32.5t28 -85.5q0 -51 -23 -93.5t-65 -67t-98 -24.5q-58 0 -102 27t-68 75t-24 109q0 70 35.5 123t98.5 81.5t142 28.5q81 0 145 -31zM294.5 161.5q14.5 -14.5 36.5 -14.5q23 0 38 14.5t15 36.5q0 23 -15 38t-38 15q-22 0 -36.5 -15t-14.5 -38
q0 -22 14.5 -36.5z" />
    <glyph glyph-name="uni0E52" unicode="&#xe52;" horiz-adv-x="675"
d="M588.5 380q31.5 -54 31.5 -149q0 -126 -65 -183.5t-207 -57.5q-286 0 -286 214v305q0 39 -39 42v57h28q40 0 59 -21.5t19 -64.5v-322q0 -154 221 -154q114 0 160 45t46 142q0 67 -16.5 107.5t-48.5 40.5q-26 0 -43.5 -23t-20.5 -60h-38q-13 84 -69 84q-30 0 -50 -21
t-25 -54q15 10 36 10q38 0 62.5 -24.5t24.5 -62.5t-26 -62.5t-66 -24.5q-44 0 -69.5 32t-25.5 87q0 76 36.5 124t98.5 48q65 0 92 -64q11 31 33 47.5t53 16.5q63 0 94.5 -54zM246 262.5q-12 -12.5 -12 -32.5q0 -19 12.5 -31t31.5 -12t31.5 12t12.5 31q0 20 -12 32.5
t-32 12.5t-32 -12.5z" />
    <glyph glyph-name="uni0E53" unicode="&#xe53;" horiz-adv-x="689"
d="M590 395.5q33 -38.5 33 -105.5v-290h-67v286q0 42 -17 67t-53 25q-41 0 -63 -29.5t-22 -75.5v-273h-64v272q0 45 -26 75.5t-69 30.5q-57 0 -87 -45.5t-32 -128.5q0 -36 2 -52q9 13 26 21t37 8q41 0 67.5 -27t26.5 -70q0 -42 -28 -68t-72 -26q-63 0 -95 53t-32 151
q0 112 48.5 176t133.5 64q50 0 84 -22.5t48 -63.5q16 40 47.5 63t77.5 23q63 0 96 -38.5zM146.5 122.5q-14.5 -14.5 -14.5 -36.5t15 -37t37 -15t36.5 14.5t14.5 37.5t-14 37t-37 14t-37.5 -14.5z" />
    <glyph glyph-name="uni0E54" unicode="&#xe54;" horiz-adv-x="675"
d="M492 22q-22 0 -93 -13q-101 -19 -143 -19q-92 0 -146 56t-54 156q0 111 70.5 169.5t207.5 62.5q90 3 129 7.5t71 19.5q35 17 59 54t30 93h63q-21 -153 -132 -200q-36 -17 -82 -21.5t-118 -5.5h-21q-96 -2 -153 -43.5t-57 -136.5q0 -74 38.5 -115.5t108.5 -41.5
q26 0 70.5 6t80.5 14q-86 20 -129.5 59t-43.5 91q0 43 27.5 69.5t70.5 26.5q42 0 69.5 -26t27.5 -65q0 -32 -19.5 -56.5t-50.5 -31.5q34 -17 119 -42q52 -14 89.5 -27.5t69.5 -30.5l-30 -48q-81 39 -129 39zM381.5 180.5q13.5 13.5 13.5 35.5q0 23 -13.5 36.5t-35.5 13.5
q-23 0 -36.5 -13.5t-13.5 -36.5q0 -22 13.5 -35.5t36.5 -13.5q22 0 35.5 13.5z" />
    <glyph glyph-name="uni0E55" unicode="&#xe55;" horiz-adv-x="675"
d="M423.5 162.5q-19.5 -24.5 -50.5 -31.5q34 -17 119 -42q52 -14 89.5 -27.5t69.5 -30.5l-30 -48q-81 39 -129 39q-22 0 -93 -13q-101 -19 -143 -19q-92 0 -146 56t-54 156q0 103 61 161t179 69q-18 26 -18 54q0 42 27 68.5t69 26.5q43 0 70.5 -26.5t27.5 -68.5
q0 -24 -13 -45q44 4 75 20q35 17 59 54t30 93h63q-21 -153 -132 -200q-36 -17 -82 -21.5t-118 -5.5h-21q-96 -2 -153 -43.5t-57 -136.5q0 -74 38.5 -115.5t108.5 -41.5q26 0 70.5 6t80.5 14q-86 20 -129.5 59t-43.5 91q0 43 27.5 69.5t70.5 26.5q42 0 69.5 -26t27.5 -65
q0 -32 -19.5 -56.5zM338.5 522.5q-13.5 -13.5 -13.5 -35.5t13.5 -35.5t35.5 -13.5q23 0 37 13.5t14 35.5t-14 35.5t-37 13.5q-22 0 -35.5 -13.5zM309.5 180.5q13.5 -13.5 36.5 -13.5q22 0 35.5 13.5t13.5 35.5q0 23 -13.5 36.5t-35.5 13.5q-23 0 -36.5 -13.5t-13.5 -36.5
q0 -22 13.5 -35.5z" />
    <glyph glyph-name="uni0E56" unicode="&#xe56;" horiz-adv-x="676"
d="M166 27q-61 37 -61 100q0 43 28 70t71 27q44 0 72.5 -27t28.5 -68q0 -24 -12 -45.5t-30 -32.5q35 -6 72 -6q103 0 160.5 45t57.5 126q0 79 -54.5 120.5t-142.5 41.5q-65 0 -121.5 -24t-91.5 -64h-40q-5 101 -26 186t-52 132h73q24 -48 39.5 -111t18.5 -129
q41 31 92.5 48.5t106.5 17.5q77 0 137 -25.5t94 -74.5t34 -116q0 -68 -35 -119.5t-100.5 -80t-156.5 -28.5q-101 0 -162 37zM243.5 89q15.5 15 15.5 38t-15.5 38.5t-39.5 15.5q-22 0 -37 -15.5t-15 -38.5t14.5 -38t37.5 -15q24 0 39.5 15z" />
    <glyph glyph-name="uni0E57" unicode="&#xe57;" horiz-adv-x="729"
d="M708 608q-15 -47 -19 -96.5t-4 -132.5q-1 -19 -1 -61q-2 -145 -52 -227t-166 -95l-28 25q48 135 48 233q0 59 -18 91t-52 32t-51.5 -29t-17.5 -75v-76h-58v76q0 43 -20.5 73.5t-54.5 30.5q-42 0 -66 -44.5t-25 -126.5q0 -23 2 -51q9 12 26 19.5t37 7.5q41 0 68 -26.5
t27 -68.5q0 -43 -28 -70t-73 -27q-63 0 -95 55t-32 151q0 110 41.5 174t113.5 64q38 0 67 -23t41 -65q12 43 39.5 65.5t66.5 22.5q62 0 95 -47t33 -135q0 -91 -38 -184q51 19 78.5 74.5t29.5 153.5v59q0 102 3.5 158.5t20.5 94.5h62zM146.5 123.5q-14.5 -15.5 -14.5 -38.5
t14.5 -37.5t37.5 -14.5t38.5 15t15.5 37q0 23 -15.5 38.5t-38.5 15.5t-37.5 -15.5z" />
    <glyph glyph-name="uni0E58" unicode="&#xe58;" horiz-adv-x="671"
d="M594 235.5q28 -31.5 28 -84.5q0 -68 -41 -114.5t-118 -46.5q-108 0 -189 126q-23 -16 -51 -49t-47 -67h-38q-40 29 -61 81.5t-21 119.5q0 115 67 174t191 59q12 0 65 -5q30 -5 51 -5q65 0 92.5 40t27.5 113v31h63v-36q0 -100 -43.5 -153t-133.5 -53q-25 0 -62 5
q-8 1 -29 3t-36 2q-92 0 -139.5 -44.5t-47.5 -125.5q0 -42 10.5 -81t27.5 -55q55 80 134 120q28 -63 75 -105t98 -42q25 0 46.5 11.5t31.5 32.5q-15 -8 -33 -8q-39 0 -64 26.5t-25 67.5t27 67.5t69 26.5q47 0 75 -31.5zM557.5 135.5q14.5 14.5 14.5 37.5t-14 37t-37 14
t-38 -14.5t-15 -36.5q0 -23 15 -37.5t38 -14.5q22 0 36.5 14.5z" />
    <glyph glyph-name="uni0E59" unicode="&#xe59;" horiz-adv-x="689"
d="M517 166q54 -78 119 -136l-40 -40q-63 57 -125.5 147t-92.5 169q-13 32 -46 51.5t-73 19.5q-62 0 -99 -47t-37 -121q0 -47 16.5 -85t48.5 -58q-7 14 -7 33q0 38 26.5 63t67.5 25q43 0 70.5 -27t27.5 -69q0 -45 -34 -73t-85 -28q-62 0 -106.5 29t-68 79t-23.5 112
q0 64 24 114.5t70 80t109 29.5q89 0 139 -65q3 31 20 48t41 17q16 0 30 -8t31 -22q3 -2 12 -8.5t16.5 -10t13.5 -3.5q41 0 41 93q0 52 -15 133h53q14 -82 14 -134q0 -141 -85 -141q-19 0 -33.5 7.5t-31.5 21.5q-13 10 -20.5 14.5t-16.5 4.5q-31 0 -34 -55q29 -82 83 -160z
M238 128.5q-15 -14.5 -15 -37.5q0 -22 15 -37t37 -15q23 0 37.5 15t14.5 37q0 23 -14.5 37.5t-37.5 14.5q-22 0 -37 -14.5z" />
    <glyph glyph-name="uni0E5A" unicode="&#xe5a;" horiz-adv-x="747"
d="M645.5 553q23.5 -23 23.5 -68v-485h-68v476q0 22 -11 31.5t-34 10.5q-34 -84 -98 -116v-402h-69v476q0 22 -10.5 31.5t-33.5 10.5q-26 -64 -76 -100t-111 -36q-59 0 -93 29.5t-34 77.5q0 43 27.5 70t71.5 27t71 -26.5t27 -68.5q0 -26 -14 -45q75 26 96 130h57
q44 0 67.5 -23t23.5 -68v-20q46 37 63 111h58q43 0 66.5 -23zM163.5 456.5q13.5 13.5 13.5 34.5q0 20 -13.5 34t-34.5 14q-20 0 -33.5 -14t-13.5 -34q0 -21 13.5 -34.5t33.5 -13.5q21 0 34.5 13.5z" />
    <glyph glyph-name="uni0E5B" unicode="&#xe5b;" horiz-adv-x="1008"
d="M970 282v-42h-104l-37 64l-50 -105h-38l-49 110l-47 -126h-49l-49 120q-3 -87 -35 -149.5t-87 -94.5t-125 -32q-103 0 -163 66t-60 179q0 108 51 170.5t139 62.5q72 0 113 -43.5t41 -119.5q0 -69 -31.5 -112.5t-83.5 -43.5q-40 0 -64 23.5t-24 60.5t23 60t59 23
q45 0 66 -29q1 7 1 21q0 49 -25 76.5t-75 27.5q-60 0 -94.5 -49t-34.5 -131q0 -87 43 -136t119 -49q59 0 103 30t68 83t24 120v83h70l56 -151l43 118h51l45 -101l44 88h44l42 -72h80zM332.5 239.5q11.5 11.5 11.5 29.5q0 19 -11.5 30.5t-29.5 11.5q-19 0 -31 -11.5
t-12 -30.5q0 -18 12 -29.5t31 -11.5q18 0 29.5 11.5z" />
    <glyph glyph-name="uni1E0C" unicode="&#x1e0c;" horiz-adv-x="618"
d="M86 700h215q137 0 203 -82.5t66 -253.5q0 -129 -30.5 -209t-95.5 -117.5t-171 -37.5h-187v700zM289 62q108 0 158 72.5t50 229.5q0 143 -47 208.5t-151 65.5h-139v-576h129zM261.5 -150q-13.5 13 -13.5 32q0 20 13.5 33t33.5 13t33.5 -13t13.5 -33q0 -19 -13.5 -32
t-33.5 -13t-33.5 13z" />
    <glyph glyph-name="uni1E0D" unicode="&#x1e0d;" horiz-adv-x="538"
d="M93 62q-56 72 -56 197q0 116 57 183.5t154 67.5q48 0 87 -21t66 -62h2v315h68v-618q0 -89 3 -124h-62q-3 42 -3 84h-2q-23 -43 -66.5 -68.5t-94.5 -25.5q-97 0 -153 72zM361 89q41 42 41 111v87q0 77 -40.5 122.5t-107.5 45.5q-69 0 -108 -52.5t-39 -145.5q0 -98 39 -154
t107 -56q67 0 108 42zM239.5 -150q-13.5 13 -13.5 32q0 20 13.5 33t33.5 13t33.5 -13t13.5 -33q0 -19 -13.5 -32t-33.5 -13t-33.5 13z" />
    <glyph glyph-name="uni1E0E" unicode="&#x1e0e;" horiz-adv-x="618"
d="M86 700h215q137 0 203 -82.5t66 -253.5q0 -129 -30.5 -209t-95.5 -117.5t-171 -37.5h-187v700zM289 62q108 0 158 72.5t50 229.5q0 143 -47 208.5t-151 65.5h-139v-576h129zM144 -64h302v-50h-302v50z" />
    <glyph glyph-name="uni1E0F" unicode="&#x1e0f;" horiz-adv-x="538"
d="M93 62q-56 72 -56 197q0 116 57 183.5t154 67.5q48 0 87 -21t66 -62h2v315h68v-618q0 -89 3 -124h-62q-3 42 -3 84h-2q-23 -43 -66.5 -68.5t-94.5 -25.5q-97 0 -153 72zM361 89q41 42 41 111v87q0 77 -40.5 122.5t-107.5 45.5q-69 0 -108 -52.5t-39 -145.5q0 -98 39 -154
t107 -56q67 0 108 42zM122 -64h302v-50h-302v50z" />
    <glyph glyph-name="uni1E20" unicode="&#x1e20;" horiz-adv-x="633"
d="M567 356v-356h-46l-16 48q-33 -28 -78.5 -43t-97.5 -15q-89 0 -155 43.5t-101.5 125t-35.5 191.5q0 109 37 190.5t104.5 125.5t158.5 44q74 0 132 -27.5t86 -76.5l-40 -43q-26 41 -72 63t-106 22q-106 0 -165.5 -79t-59.5 -219q0 -142 59 -221t164 -79q48 0 89.5 15.5
t69.5 43.5v190h-172v57h245zM186 814h302v-50h-302v50z" />
    <glyph glyph-name="uni1E21" unicode="&#x1e21;" horiz-adv-x="538"
d="M471 500v-485q0 -118 -57.5 -179t-167.5 -61q-99 0 -177 43l23 53q39 -19 75 -27.5t77 -8.5q82 0 122 46.5t40 143.5v50q-22 -39 -63.5 -61.5t-94.5 -22.5q-98 0 -154.5 71.5t-56.5 196.5q0 116 56.5 183.5t153.5 67.5q51 0 91.5 -22t63.5 -63h2l10 75h57zM402 284
q0 79 -39.5 125t-106.5 46q-69 0 -109 -53t-40 -145q0 -98 39.5 -153.5t109.5 -55.5q68 0 107 41.5t39 113.5v81zM105 614h302v-50h-302v50z" />
    <glyph glyph-name="uni1E24" unicode="&#x1e24;" horiz-adv-x="674"
d="M85 700h74v-316h356v316h74v-700h-74v322h-356v-322h-74v700zM303.5 -150q-13.5 13 -13.5 32q0 20 13.5 33t33.5 13t33.5 -13t13.5 -33q0 -19 -13.5 -32t-33.5 -13t-33.5 13z" />
    <glyph glyph-name="uni1E25" unicode="&#x1e25;" horiz-adv-x="555"
d="M66 742h69v-329q24 44 70.5 70.5t101.5 26.5q88 0 135 -58t47 -167v-285h-69v286q0 82 -31.5 125.5t-90.5 43.5q-46 0 -83 -23.5t-58.5 -65t-21.5 -93.5v-273h-69v742zM244.5 -150q-13.5 13 -13.5 32q0 20 13.5 33t33.5 13t33.5 -13t13.5 -33q0 -19 -13.5 -32t-33.5 -13
t-33.5 13z" />
    <glyph glyph-name="uni1E2A" unicode="&#x1e2a;" horiz-adv-x="674"
d="M85 700h74v-316h356v316h74v-700h-74v322h-356v-322h-74v700zM239 -166.5q-37 30.5 -41 94.5h43q3 -36 27 -56.5t69 -20.5q41 0 66.5 19t29.5 58h43q-2 -58 -37 -91.5t-102 -33.5q-61 0 -98 30.5z" />
    <glyph glyph-name="uni1E2B" unicode="&#x1e2b;" horiz-adv-x="555"
d="M66 742h69v-329q24 44 70.5 70.5t101.5 26.5q88 0 135 -58t47 -167v-285h-69v286q0 82 -31.5 125.5t-90.5 43.5q-46 0 -83 -23.5t-58.5 -65t-21.5 -93.5v-273h-69v742zM180 -166.5q-37 30.5 -41 94.5h43q3 -36 27 -56.5t69 -20.5q41 0 66.5 19t29.5 58h43
q-2 -58 -37 -91.5t-102 -33.5q-61 0 -98 30.5z" />
    <glyph glyph-name="uni1E36" unicode="&#x1e36;" horiz-adv-x="537"
d="M85 700h74v-638h341v-62h-415v700zM258.5 -150q-13.5 13 -13.5 32q0 20 13.5 33t33.5 13t33.5 -13t13.5 -33q0 -19 -13.5 -32t-33.5 -13t-33.5 13z" />
    <glyph glyph-name="uni1E37" unicode="&#x1e37;" horiz-adv-x="289"
d="M75 115v627h70v-626q0 -40 11.5 -56t40.5 -16q20 0 48 11l12 -43q-36 -22 -81 -22q-101 0 -101 125zM140.5 -150q-13.5 13 -13.5 32q0 20 13.5 33t33.5 13t33.5 -13t13.5 -33q0 -19 -13.5 -32t-33.5 -13t-33.5 13z" />
    <glyph glyph-name="uni1E38" unicode="&#x1e38;" horiz-adv-x="537"
d="M85 700h74v-638h341v-62h-415v700zM258.5 -150q-13.5 13 -13.5 32q0 20 13.5 33t33.5 13t33.5 -13t13.5 -33q0 -19 -13.5 -32t-33.5 -13t-33.5 13zM-29 814h302v-50h-302v50z" />
    <glyph glyph-name="uni1E39" unicode="&#x1e39;" horiz-adv-x="289"
d="M75 115v627h70v-626q0 -40 11.5 -56t40.5 -16q20 0 48 11l12 -43q-36 -22 -81 -22q-101 0 -101 125zM140.5 -150q-13.5 13 -13.5 32q0 20 13.5 33t33.5 13t33.5 -13t13.5 -33q0 -19 -13.5 -32t-33.5 -13t-33.5 13zM-41 856h302v-50h-302v50z" />
    <glyph glyph-name="uni1E3A" unicode="&#x1e3a;" horiz-adv-x="537"
d="M85 700h74v-638h341v-62h-415v700zM141 -64h302v-50h-302v50z" />
    <glyph glyph-name="uni1E3B" unicode="&#x1e3b;" horiz-adv-x="289"
d="M75 115v627h70v-626q0 -40 11.5 -56t40.5 -16q20 0 48 11l12 -43q-36 -22 -81 -22q-101 0 -101 125zM23 -64h302v-50h-302v50z" />
    <glyph glyph-name="uni1E42" unicode="&#x1e42;" horiz-adv-x="793"
d="M707 700v-700h-72v575l-214 -575h-50l-213 575v-575h-72v700h91l219 -603l220 603h91zM363.5 -150q-13.5 13 -13.5 32q0 20 13.5 33t33.5 13t33.5 -13t13.5 -33q0 -19 -13.5 -32t-33.5 -13t-33.5 13z" />
    <glyph glyph-name="uni1E43" unicode="&#x1e43;" horiz-adv-x="838"
d="M66 376q0 68 -4 124h62q3 -28 3 -89h3q22 46 64.5 72.5t94.5 26.5q54 0 92.5 -28.5t51.5 -78.5q20 49 64.5 78t99.5 29q82 0 128 -53.5t46 -147.5v-309h-69v305q0 72 -31 110t-89 38q-56 0 -93 -42.5t-37 -106.5v-304h-68v299q0 154 -113 154q-36 0 -67.5 -21t-50 -56.5
t-18.5 -74.5v-301h-69v376zM384.5 -150q-13.5 13 -13.5 32q0 20 13.5 33t33.5 13t33.5 -13t13.5 -33q0 -19 -13.5 -32t-33.5 -13t-33.5 13z" />
    <glyph glyph-name="uni1E44" unicode="&#x1e44;" horiz-adv-x="677"
d="M591 700v-700h-75l-357 588v-588h-74v700h82l351 -581v581h73zM304.5 767q-13.5 13 -13.5 33q0 19 13.5 32t33.5 13t33.5 -13t13.5 -32q0 -20 -13.5 -33t-33.5 -13t-33.5 13z" />
    <glyph glyph-name="uni1E45" unicode="&#x1e45;" horiz-adv-x="545"
d="M65 376q0 88 -3 124h63q4 -34 4 -95h3q22 48 69 76.5t103 28.5q87 0 131 -57t44 -169v-284h-69v285q0 85 -29 126.5t-88 41.5q-45 0 -81 -23.5t-56.5 -64.5t-20.5 -92v-273h-70v376zM239.5 567q-13.5 13 -13.5 33q0 19 13.5 32t33.5 13t33.5 -13t13.5 -32
q0 -20 -13.5 -33t-33.5 -13t-33.5 13z" />
    <glyph glyph-name="uni1E46" unicode="&#x1e46;" horiz-adv-x="677"
d="M591 700v-700h-75l-357 588v-588h-74v700h82l351 -581v581h73zM304.5 -150q-13.5 13 -13.5 32q0 20 13.5 33t33.5 13t33.5 -13t13.5 -33q0 -19 -13.5 -32t-33.5 -13t-33.5 13z" />
    <glyph glyph-name="uni1E47" unicode="&#x1e47;" horiz-adv-x="545"
d="M65 376q0 88 -3 124h63q4 -34 4 -95h3q22 48 69 76.5t103 28.5q87 0 131 -57t44 -169v-284h-69v285q0 85 -29 126.5t-88 41.5q-45 0 -81 -23.5t-56.5 -64.5t-20.5 -92v-273h-70v376zM239.5 -150q-13.5 13 -13.5 32q0 20 13.5 33t33.5 13t33.5 -13t13.5 -33
q0 -19 -13.5 -32t-33.5 -13t-33.5 13z" />
    <glyph glyph-name="uni1E48" unicode="&#x1e48;" horiz-adv-x="677"
d="M591 700v-700h-75l-357 588v-588h-74v700h82l351 -581v581h73zM187 -64h302v-50h-302v50z" />
    <glyph glyph-name="uni1E49" unicode="&#x1e49;" horiz-adv-x="545"
d="M65 376q0 88 -3 124h63q4 -34 4 -95h3q22 48 69 76.5t103 28.5q87 0 131 -57t44 -169v-284h-69v285q0 85 -29 126.5t-88 41.5q-45 0 -81 -23.5t-56.5 -64.5t-20.5 -92v-273h-70v376zM122 -64h302v-50h-302v50z" />
    <glyph glyph-name="uni1E5A" unicode="&#x1e5a;" horiz-adv-x="577"
d="M86 700h206q111 0 165.5 -45.5t54.5 -138.5q0 -70 -37 -118.5t-102 -64.5v-2q22 -13 36 -29.5t24 -41.5l105 -260h-80l-90 230q-19 47 -45.5 64.5t-78.5 17.5h-84v-312h-74v700zM289 373q77 0 114.5 35t37.5 106q0 63 -38.5 93.5t-117.5 30.5h-125v-265h129zM255.5 -150
q-13.5 13 -13.5 32q0 20 13.5 33t33.5 13t33.5 -13t13.5 -33q0 -19 -13.5 -32t-33.5 -13t-33.5 13z" />
    <glyph glyph-name="uni1E5B" unicode="&#x1e5b;" horiz-adv-x="334"
d="M72 378q0 85 -3 122h64q4 -39 4 -88v-12h2q19 53 59.5 81.5t94.5 28.5q18 0 29 -3v-58q-16 2 -33 2q-41 0 -75 -25t-53.5 -69t-19.5 -97v-260h-69v378zM74.5 -150q-13.5 13 -13.5 32q0 20 13.5 33t33.5 13t33.5 -13t13.5 -33q0 -19 -13.5 -32t-33.5 -13t-33.5 13z" />
    <glyph glyph-name="uni1E5C" unicode="&#x1e5c;" horiz-adv-x="577"
d="M86 700h206q111 0 165.5 -45.5t54.5 -138.5q0 -70 -37 -118.5t-102 -64.5v-2q22 -13 36 -29.5t24 -41.5l105 -260h-80l-90 230q-19 47 -45.5 64.5t-78.5 17.5h-84v-312h-74v700zM289 373q77 0 114.5 35t37.5 106q0 63 -38.5 93.5t-117.5 30.5h-125v-265h129zM255.5 -150
q-13.5 13 -13.5 32q0 20 13.5 33t33.5 13t33.5 -13t13.5 -33q0 -19 -13.5 -32t-33.5 -13t-33.5 13zM138 814h302v-50h-302v50z" />
    <glyph glyph-name="uni1E5D" unicode="&#x1e5d;" horiz-adv-x="334"
d="M72 378q0 85 -3 122h64q4 -39 4 -88v-12h2q19 53 59.5 81.5t94.5 28.5q18 0 29 -3v-58q-16 2 -33 2q-41 0 -75 -25t-53.5 -69t-19.5 -97v-260h-69v378zM74.5 -150q-13.5 13 -13.5 32q0 20 13.5 33t33.5 13t33.5 -13t13.5 -33q0 -19 -13.5 -32t-33.5 -13t-33.5 13zM38 614
h302v-50h-302v50z" />
    <glyph glyph-name="uni1E5E" unicode="&#x1e5e;" horiz-adv-x="577"
d="M86 700h206q111 0 165.5 -45.5t54.5 -138.5q0 -70 -37 -118.5t-102 -64.5v-2q22 -13 36 -29.5t24 -41.5l105 -260h-80l-90 230q-19 47 -45.5 64.5t-78.5 17.5h-84v-312h-74v700zM289 373q77 0 114.5 35t37.5 106q0 63 -38.5 93.5t-117.5 30.5h-125v-265h129zM138 -64h302
v-50h-302v50z" />
    <glyph glyph-name="uni1E5F" unicode="&#x1e5f;" horiz-adv-x="334"
d="M72 378q0 85 -3 122h64q4 -39 4 -88v-12h2q19 53 59.5 81.5t94.5 28.5q18 0 29 -3v-58q-16 2 -33 2q-41 0 -75 -25t-53.5 -69t-19.5 -97v-260h-69v378zM39 -64h302v-50h-302v50z" />
    <glyph glyph-name="uni1E60" unicode="&#x1e60;" horiz-adv-x="525"
d="M136.5 18q-57.5 28 -92.5 76l46 46q31 -39 78.5 -63.5t93.5 -24.5q64 0 103.5 33t39.5 87q0 51 -32 87t-116 77q-73 36 -114.5 66.5t-59 62.5t-17.5 73q0 79 55.5 125.5t148.5 46.5q64 0 118 -29t80 -77l-50 -35q-23 36 -63 57.5t-85 21.5q-59 0 -94.5 -29.5t-35.5 -78.5
q0 -29 13 -49.5t47.5 -43t105.5 -58.5q93 -46 133 -95t40 -116q0 -56 -27.5 -99t-77.5 -66t-115 -23t-122.5 28zM229.5 767q-13.5 13 -13.5 33q0 19 13.5 32t33.5 13t33.5 -13t13.5 -32q0 -20 -13.5 -33t-33.5 -13t-33.5 13z" />
    <glyph glyph-name="uni1E61" unicode="&#x1e61;" horiz-adv-x="409"
d="M99.5 12q-43.5 22 -62.5 58l46 32q18 -28 48 -42.5t68 -14.5q45 0 74 26.5t29 67.5q0 33 -23.5 55.5t-81.5 44.5q-83 31 -116.5 64t-33.5 82q0 56 44 90.5t117 34.5q47 0 86.5 -21t58.5 -57l-44 -32q-34 55 -102 55q-40 0 -65.5 -19t-25.5 -49q0 -29 25 -49.5t93 -45.5
q74 -29 106 -64t32 -87q0 -68 -48 -109.5t-128 -41.5q-53 0 -96.5 22zM171.5 567q-13.5 13 -13.5 33q0 19 13.5 32t33.5 13t33.5 -13t13.5 -32q0 -20 -13.5 -33t-33.5 -13t-33.5 13z" />
    <glyph glyph-name="uni1E62" unicode="&#x1e62;" horiz-adv-x="525"
d="M136.5 18q-57.5 28 -92.5 76l46 46q31 -39 78.5 -63.5t93.5 -24.5q64 0 103.5 33t39.5 87q0 51 -32 87t-116 77q-73 36 -114.5 66.5t-59 62.5t-17.5 73q0 79 55.5 125.5t148.5 46.5q64 0 118 -29t80 -77l-50 -35q-23 36 -63 57.5t-85 21.5q-59 0 -94.5 -29.5t-35.5 -78.5
q0 -29 13 -49.5t47.5 -43t105.5 -58.5q93 -46 133 -95t40 -116q0 -56 -27.5 -99t-77.5 -66t-115 -23t-122.5 28zM229.5 -150q-13.5 13 -13.5 32q0 20 13.5 33t33.5 13t33.5 -13t13.5 -33q0 -19 -13.5 -32t-33.5 -13t-33.5 13z" />
    <glyph glyph-name="uni1E63" unicode="&#x1e63;" horiz-adv-x="409"
d="M99.5 12q-43.5 22 -62.5 58l46 32q18 -28 48 -42.5t68 -14.5q45 0 74 26.5t29 67.5q0 33 -23.5 55.5t-81.5 44.5q-83 31 -116.5 64t-33.5 82q0 56 44 90.5t117 34.5q47 0 86.5 -21t58.5 -57l-44 -32q-34 55 -102 55q-40 0 -65.5 -19t-25.5 -49q0 -29 25 -49.5t93 -45.5
q74 -29 106 -64t32 -87q0 -68 -48 -109.5t-128 -41.5q-53 0 -96.5 22zM171.5 -150q-13.5 13 -13.5 32q0 20 13.5 33t33.5 13t33.5 -13t13.5 -33q0 -19 -13.5 -32t-33.5 -13t-33.5 13z" />
    <glyph glyph-name="uni1E6C" unicode="&#x1e6c;" horiz-adv-x="547"
d="M237 640h-219v60h510v-60h-217v-640h-74v640zM240.5 -150q-13.5 13 -13.5 32q0 20 13.5 33t33.5 13t33.5 -13t13.5 -33q0 -19 -13.5 -32t-33.5 -13t-33.5 13z" />
    <glyph glyph-name="uni1E6D" unicode="&#x1e6d;" horiz-adv-x="363"
d="M135 30.5q-35 40.5 -35 114.5v300h-90v55h90v135l65 21h4v-156h141v-55h-141v-291q0 -56 19 -81.5t60 -25.5q40 0 67 12l6 -53q-33 -16 -87 -16q-64 0 -99 40.5zM185.5 -150q-13.5 13 -13.5 32q0 20 13.5 33t33.5 13t33.5 -13t13.5 -33q0 -19 -13.5 -32t-33.5 -13
t-33.5 13z" />
    <glyph glyph-name="uni1E6E" unicode="&#x1e6e;" horiz-adv-x="547"
d="M237 640h-219v60h510v-60h-217v-640h-74v640zM123 -64h302v-50h-302v50z" />
    <glyph glyph-name="uni1E6F" unicode="&#x1e6f;" horiz-adv-x="363"
d="M135 30.5q-35 40.5 -35 114.5v300h-90v55h90v135l65 21h4v-156h141v-55h-141v-291q0 -56 19 -81.5t60 -25.5q40 0 67 12l6 -53q-33 -16 -87 -16q-64 0 -99 40.5zM68 -64h302v-50h-302v50z" />
    <glyph glyph-name="Wgrave" unicode="&#x1e80;" horiz-adv-x="817"
d="M788 700l-144 -700h-76l-159 602l-160 -602h-76l-145 700h80l107 -592l154 592h78l154 -592l107 592h80zM287 894h74l76 -140h-57z" />
    <glyph glyph-name="wgrave" unicode="&#x1e81;" horiz-adv-x="655"
d="M645 500l-125 -500h-64l-128 427l-129 -427h-64l-124 500h73l87 -410l124 410h65l124 -410l87 410h74zM207 694h74l76 -140h-57z" />
    <glyph glyph-name="Wacute" unicode="&#x1e82;" horiz-adv-x="817"
d="M788 700l-144 -700h-76l-159 602l-160 -602h-76l-145 700h80l107 -592l154 592h78l154 -592l107 592h80zM459 894h74l-93 -140h-57z" />
    <glyph glyph-name="wacute" unicode="&#x1e83;" horiz-adv-x="655"
d="M645 500l-125 -500h-64l-128 427l-129 -427h-64l-124 500h73l87 -410l124 410h65l124 -410l87 410h74zM379 694h74l-93 -140h-57z" />
    <glyph glyph-name="Wdieresis" unicode="&#x1e84;" horiz-adv-x="817"
d="M788 700l-144 -700h-76l-159 602l-160 -602h-76l-145 700h80l107 -592l154 592h78l154 -592l107 592h80zM276.5 767q-13.5 13 -13.5 33q0 19 13.5 32t33.5 13t33 -13t13 -32t-13.5 -32.5t-32.5 -13.5q-20 0 -33.5 13zM472.5 767.5q-13.5 13.5 -13.5 32.5t13.5 32t33.5 13
t33.5 -13t13.5 -32q0 -20 -13.5 -33t-33.5 -13t-33.5 13.5z" />
    <glyph glyph-name="wdieresis" unicode="&#x1e85;" horiz-adv-x="655"
d="M645 500l-125 -500h-64l-128 427l-129 -427h-64l-124 500h73l87 -410l124 410h65l124 -410l87 410h74zM196.5 567q-13.5 13 -13.5 33q0 19 13.5 32t33.5 13t33 -13t13 -32t-13.5 -32.5t-32.5 -13.5q-20 0 -33.5 13zM392.5 567.5q-13.5 13.5 -13.5 32.5t13.5 32t33.5 13
t33.5 -13t13.5 -32q0 -20 -13.5 -33t-33.5 -13t-33.5 13.5z" />
    <glyph glyph-name="uni1E8E" unicode="&#x1e8e;" horiz-adv-x="554"
d="M240 278l-221 422h82l176 -353l175 353h83l-220 -422v-278h-75v278zM243.5 767q-13.5 13 -13.5 33q0 19 13.5 32t33.5 13t33.5 -13t13.5 -32q0 -20 -13.5 -33t-33.5 -13t-33.5 13z" />
    <glyph glyph-name="uni1E8F" unicode="&#x1e8f;" horiz-adv-x="448"
d="M437 500l-177 -504q-37 -103 -88.5 -152.5t-122.5 -49.5q-27 0 -48 6v52q17 -5 39 -5q53 0 89.5 39t73.5 136l-186 478h75l142 -403l127 403h76zM196.5 567q-13.5 13 -13.5 33q0 19 13.5 32t33.5 13t33.5 -13t13.5 -32q0 -20 -13.5 -33t-33.5 -13t-33.5 13z" />
    <glyph glyph-name="uni1E92" unicode="&#x1e92;" horiz-adv-x="559"
d="M37 44l382 594h-352v62h442v-46l-381 -592h394v-62h-485v44zM245.5 -150q-13.5 13 -13.5 32q0 20 13.5 33t33.5 13t33.5 -13t13.5 -33q0 -19 -13.5 -32t-33.5 -13t-33.5 13z" />
    <glyph glyph-name="uni1E93" unicode="&#x1e93;" horiz-adv-x="443"
d="M28 41l296 403h-282v56h363v-44l-291 -400h301v-56h-387v41zM187.5 -150q-13.5 13 -13.5 32q0 20 13.5 33t33.5 13t33.5 -13t13.5 -33q0 -19 -13.5 -32t-33.5 -13t-33.5 13z" />
    <glyph glyph-name="uni1E97" unicode="&#x1e97;" horiz-adv-x="363"
d="M135 30.5q-35 40.5 -35 114.5v300h-90v55h90v135l65 21h4v-156h141v-55h-141v-291q0 -56 19 -81.5t60 -25.5q40 0 67 12l6 -53q-33 -16 -87 -16q-64 0 -99 40.5zM3.5 723q-13.5 13 -13.5 33q0 19 13.5 32t33.5 13t33 -13t13 -32t-13.5 -32.5t-32.5 -13.5q-20 0 -33.5 13z
M199.5 723.5q-13.5 13.5 -13.5 32.5t13.5 32t33.5 13t33.5 -13t13.5 -32q0 -20 -13.5 -33t-33.5 -13t-33.5 13.5z" />
    <glyph glyph-name="uni1E9E" unicode="&#x1e9e;" horiz-adv-x="619"
d="M286.5 11q-40.5 21 -63.5 61l45 30q37 -55 115 -55q54 0 86.5 35.5t32.5 95.5q0 46 -20 77.5t-65 54.5t-123 42v38l125 248h-260v-638h-74v700h410v-57l-131 -251q108 -29 159 -80.5t51 -133.5q0 -85 -52.5 -136.5t-138.5 -51.5q-56 0 -96.5 21z" />
    <glyph glyph-name="uni1EA0" unicode="&#x1ea0;" horiz-adv-x="581"
d="M431 164h-281l-52 -164h-80l237 700h71l237 -700h-80zM412 225l-121 385l-122 -385h243zM256.5 -150q-13.5 13 -13.5 32q0 20 13.5 33t33.5 13t33.5 -13t13.5 -33q0 -19 -13.5 -32t-33.5 -13t-33.5 13z" />
    <glyph glyph-name="uni1EA1" unicode="&#x1ea1;" horiz-adv-x="510"
d="M91 32.5q-47 42.5 -47 109.5q0 74 55.5 115.5t155.5 41.5h112v27q0 62 -31.5 94.5t-92.5 32.5q-45 0 -82.5 -19.5t-60.5 -56.5l-38 44q32 43 79 66t106 23q91 0 140.5 -46t49.5 -130v-240q0 -37 11 -94h-60q-7 22 -13 74h-2q-28 -40 -70 -62t-92 -22q-73 0 -120 42.5z
M292 62q34 16 54.5 43.5t20.5 58.5v82h-115q-67 0 -103.5 -27t-36.5 -77q0 -43 29 -69.5t77 -26.5q40 0 74 16zM218.5 -150q-13.5 13 -13.5 32q0 20 13.5 33t33.5 13t33.5 -13t13.5 -33q0 -19 -13.5 -32t-33.5 -13t-33.5 13z" />
    <glyph glyph-name="uni1EA2" unicode="&#x1ea2;" horiz-adv-x="581"
d="M431 164h-281l-52 -164h-80l237 700h71l237 -700h-80zM412 225l-121 385l-122 -385h243zM271 792q10 15 29 32q16 14 24.5 26t8.5 29q0 15 -11 24.5t-33 9.5q-40 0 -63 -44l-33 29q13 27 39.5 42.5t62.5 15.5q42 0 67 -19t25 -57q0 -25 -11 -42t-31 -36
q-15 -14 -22.5 -24.5t-7.5 -23.5h-54q0 23 10 38z" />
    <glyph glyph-name="uni1EA3" unicode="&#x1ea3;" horiz-adv-x="510"
d="M91 32.5q-47 42.5 -47 109.5q0 74 55.5 115.5t155.5 41.5h112v27q0 62 -31.5 94.5t-92.5 32.5q-45 0 -82.5 -19.5t-60.5 -56.5l-38 44q32 43 79 66t106 23q91 0 140.5 -46t49.5 -130v-240q0 -37 11 -94h-60q-7 22 -13 74h-2q-28 -40 -70 -62t-92 -22q-73 0 -120 42.5z
M292 62q34 16 54.5 43.5t20.5 58.5v82h-115q-67 0 -103.5 -27t-36.5 -77q0 -43 29 -69.5t77 -26.5q40 0 74 16zM233 592q10 15 29 32q16 14 24.5 26t8.5 29q0 15 -11 24.5t-33 9.5q-40 0 -63 -44l-33 29q13 27 39.5 42.5t62.5 15.5q42 0 67 -19t25 -57q0 -25 -11 -42
t-31 -36q-15 -14 -22.5 -24.5t-7.5 -23.5h-54q0 23 10 38z" />
    <glyph glyph-name="uni1EA4" unicode="&#x1ea4;" horiz-adv-x="581"
d="M431 164h-281l-52 -164h-80l237 700h71l237 -700h-80zM412 225l-121 385l-122 -385h243zM422 962h61l-63 -101h-45zM264 890h53l103 -136h-60l-70 91l-70 -91h-60z" />
    <glyph glyph-name="uni1EA5" unicode="&#x1ea5;" horiz-adv-x="510"
d="M91 32.5q-47 42.5 -47 109.5q0 74 55.5 115.5t155.5 41.5h112v27q0 62 -31.5 94.5t-92.5 32.5q-45 0 -82.5 -19.5t-60.5 -56.5l-38 44q32 43 79 66t106 23q91 0 140.5 -46t49.5 -130v-240q0 -37 11 -94h-60q-7 22 -13 74h-2q-28 -40 -70 -62t-92 -22q-73 0 -120 42.5z
M292 62q34 16 54.5 43.5t20.5 58.5v82h-115q-67 0 -103.5 -27t-36.5 -77q0 -43 29 -69.5t77 -26.5q40 0 74 16zM384 762h61l-63 -101h-45zM226 690h53l103 -136h-60l-70 91l-70 -91h-60z" />
    <glyph glyph-name="uni1EA6" unicode="&#x1ea6;" horiz-adv-x="581"
d="M431 164h-281l-52 -164h-80l237 700h71l237 -700h-80zM412 225l-121 385l-122 -385h243zM345 962h61l47 -101h-45zM264 890h53l103 -136h-60l-70 91l-70 -91h-60z" />
    <glyph glyph-name="uni1EA7" unicode="&#x1ea7;" horiz-adv-x="510"
d="M91 32.5q-47 42.5 -47 109.5q0 74 55.5 115.5t155.5 41.5h112v27q0 62 -31.5 94.5t-92.5 32.5q-45 0 -82.5 -19.5t-60.5 -56.5l-38 44q32 43 79 66t106 23q91 0 140.5 -46t49.5 -130v-240q0 -37 11 -94h-60q-7 22 -13 74h-2q-28 -40 -70 -62t-92 -22q-73 0 -120 42.5z
M292 62q34 16 54.5 43.5t20.5 58.5v82h-115q-67 0 -103.5 -27t-36.5 -77q0 -43 29 -69.5t77 -26.5q40 0 74 16zM307 762h61l47 -101h-45zM226 690h53l103 -136h-60l-70 91l-70 -91h-60z" />
    <glyph glyph-name="uni1EA8" unicode="&#x1ea8;" horiz-adv-x="581"
d="M431 164h-281l-52 -164h-80l237 700h71l237 -700h-80zM412 225l-121 385l-122 -385h243zM411.5 891q8.5 12 25.5 26q13 9 19.5 17.5t6.5 20.5t-9 19.5t-25 7.5q-14 0 -27.5 -8t-22.5 -23l-26 23q11 20 32 32t48 12q32 0 52 -16.5t20 -45.5q0 -19 -9 -31.5t-25 -25.5
q-15 -13 -21.5 -21t-6.5 -20h-40q0 21 8.5 33zM264 890h53l103 -136h-60l-70 91l-70 -91h-60z" />
    <glyph glyph-name="uni1EA9" unicode="&#x1ea9;" horiz-adv-x="510"
d="M91 32.5q-47 42.5 -47 109.5q0 74 55.5 115.5t155.5 41.5h112v27q0 62 -31.5 94.5t-92.5 32.5q-45 0 -82.5 -19.5t-60.5 -56.5l-38 44q32 43 79 66t106 23q91 0 140.5 -46t49.5 -130v-240q0 -37 11 -94h-60q-7 22 -13 74h-2q-28 -40 -70 -62t-92 -22q-73 0 -120 42.5z
M292 62q34 16 54.5 43.5t20.5 58.5v82h-115q-67 0 -103.5 -27t-36.5 -77q0 -43 29 -69.5t77 -26.5q40 0 74 16zM373.5 691q8.5 12 25.5 26q13 9 19.5 17.5t6.5 20.5t-9 19.5t-25 7.5q-14 0 -27.5 -8t-22.5 -23l-26 23q11 20 32 32t48 12q32 0 52 -16.5t20 -45.5
q0 -19 -9 -31.5t-25 -25.5q-15 -13 -21.5 -21t-6.5 -20h-40q0 21 8.5 33zM226 690h53l103 -136h-60l-70 91l-70 -91h-60z" />
    <glyph glyph-name="uni1EAA" unicode="&#x1eaa;" horiz-adv-x="581"
d="M431 164h-281l-52 -164h-80l237 700h71l237 -700h-80zM412 225l-121 385l-122 -385h243zM316.5 927.5q-12.5 6.5 -31.5 18.5q-17 11 -27 16t-21 5q-29 0 -41 -41h-35q7 38 26.5 59t50.5 22q15 0 29.5 -6.5t32.5 -17.5q3 -2 13 -8t19 -9t16 -3q16 0 25.5 10.5t14.5 32.5
h34q-6 -41 -26 -63t-53 -22q-14 0 -26.5 6.5zM264 890h53l103 -136h-60l-70 91l-70 -91h-60z" />
    <glyph glyph-name="uni1EAB" unicode="&#x1eab;" horiz-adv-x="510"
d="M91 32.5q-47 42.5 -47 109.5q0 74 55.5 115.5t155.5 41.5h112v27q0 62 -31.5 94.5t-92.5 32.5q-45 0 -82.5 -19.5t-60.5 -56.5l-38 44q32 43 79 66t106 23q91 0 140.5 -46t49.5 -130v-240q0 -37 11 -94h-60q-7 22 -13 74h-2q-28 -40 -70 -62t-92 -22q-73 0 -120 42.5z
M292 62q34 16 54.5 43.5t20.5 58.5v82h-115q-67 0 -103.5 -27t-36.5 -77q0 -43 29 -69.5t77 -26.5q40 0 74 16zM278.5 727.5q-12.5 6.5 -31.5 18.5q-17 11 -27 16t-21 5q-29 0 -41 -41h-35q7 38 26.5 59t50.5 22q15 0 29.5 -6.5t32.5 -17.5q3 -2 13 -8t19 -9t16 -3
q16 0 25.5 10.5t14.5 32.5h34q-6 -41 -26 -63t-53 -22q-14 0 -26.5 6.5zM226 690h53l103 -136h-60l-70 91l-70 -91h-60z" />
    <glyph glyph-name="uni1EAC" unicode="&#x1eac;" horiz-adv-x="581"
d="M431 164h-281l-52 -164h-80l237 700h71l237 -700h-80zM412 225l-121 385l-122 -385h243zM256.5 -150q-13.5 13 -13.5 32q0 20 13.5 33t33.5 13t33.5 -13t13.5 -33q0 -19 -13.5 -32t-33.5 -13t-33.5 13zM264 890h53l103 -136h-60l-70 91l-70 -91h-60z" />
    <glyph glyph-name="uni1EAD" unicode="&#x1ead;" horiz-adv-x="510"
d="M91 32.5q-47 42.5 -47 109.5q0 74 55.5 115.5t155.5 41.5h112v27q0 62 -31.5 94.5t-92.5 32.5q-45 0 -82.5 -19.5t-60.5 -56.5l-38 44q32 43 79 66t106 23q91 0 140.5 -46t49.5 -130v-240q0 -37 11 -94h-60q-7 22 -13 74h-2q-28 -40 -70 -62t-92 -22q-73 0 -120 42.5z
M292 62q34 16 54.5 43.5t20.5 58.5v82h-115q-67 0 -103.5 -27t-36.5 -77q0 -43 29 -69.5t77 -26.5q40 0 74 16zM218.5 -150q-13.5 13 -13.5 32q0 20 13.5 33t33.5 13t33.5 -13t13.5 -33q0 -19 -13.5 -32t-33.5 -13t-33.5 13zM226 690h53l103 -136h-60l-70 91l-70 -91h-60z
" />
    <glyph glyph-name="uni1EAE" unicode="&#x1eae;" horiz-adv-x="581"
d="M431 164h-281l-52 -164h-80l237 700h71l237 -700h-80zM412 225l-121 385l-122 -385h243zM307 1000h63l-65 -105h-47zM192 785q-37 31 -41 95h45q3 -36 26 -57t68 -21q41 0 65.5 19.5t28.5 58.5h45q-2 -59 -37 -92.5t-102 -33.5q-61 0 -98 31z" />
    <glyph glyph-name="uni1EAF" unicode="&#x1eaf;" horiz-adv-x="510"
d="M91 32.5q-47 42.5 -47 109.5q0 74 55.5 115.5t155.5 41.5h112v27q0 62 -31.5 94.5t-92.5 32.5q-45 0 -82.5 -19.5t-60.5 -56.5l-38 44q32 43 79 66t106 23q91 0 140.5 -46t49.5 -130v-240q0 -37 11 -94h-60q-7 22 -13 74h-2q-28 -40 -70 -62t-92 -22q-73 0 -120 42.5z
M292 62q34 16 54.5 43.5t20.5 58.5v82h-115q-67 0 -103.5 -27t-36.5 -77q0 -43 29 -69.5t77 -26.5q40 0 74 16zM269 800h63l-65 -105h-47zM154 585q-37 31 -41 95h45q3 -36 26 -57t68 -21q41 0 65.5 19.5t28.5 58.5h45q-2 -59 -37 -92.5t-102 -33.5q-61 0 -98 31z" />
    <glyph glyph-name="uni1EB0" unicode="&#x1eb0;" horiz-adv-x="581"
d="M431 164h-281l-52 -164h-80l237 700h71l237 -700h-80zM412 225l-121 385l-122 -385h243zM201 1000h62l50 -105h-47zM192 785q-37 31 -41 95h45q3 -36 26 -57t68 -21q41 0 65.5 19.5t28.5 58.5h45q-2 -59 -37 -92.5t-102 -33.5q-61 0 -98 31z" />
    <glyph glyph-name="uni1EB1" unicode="&#x1eb1;" horiz-adv-x="510"
d="M91 32.5q-47 42.5 -47 109.5q0 74 55.5 115.5t155.5 41.5h112v27q0 62 -31.5 94.5t-92.5 32.5q-45 0 -82.5 -19.5t-60.5 -56.5l-38 44q32 43 79 66t106 23q91 0 140.5 -46t49.5 -130v-240q0 -37 11 -94h-60q-7 22 -13 74h-2q-28 -40 -70 -62t-92 -22q-73 0 -120 42.5z
M292 62q34 16 54.5 43.5t20.5 58.5v82h-115q-67 0 -103.5 -27t-36.5 -77q0 -43 29 -69.5t77 -26.5q40 0 74 16zM163 800h62l50 -105h-47zM154 585q-37 31 -41 95h45q3 -36 26 -57t68 -21q41 0 65.5 19.5t28.5 58.5h45q-2 -59 -37 -92.5t-102 -33.5q-61 0 -98 31z" />
    <glyph glyph-name="uni1EB2" unicode="&#x1eb2;" horiz-adv-x="581"
d="M431 164h-281l-52 -164h-80l237 700h71l237 -700h-80zM412 225l-121 385l-122 -385h243zM276 917.5q9 12.5 26 25.5q13 10 19.5 18t6.5 20q0 13 -9.5 21t-26.5 8q-14 0 -28 -7.5t-22 -22.5l-25 21q12 20 32.5 32t46.5 12q31 0 51.5 -17t20.5 -46q0 -19 -9 -31.5
t-25 -25.5q-15 -13 -21.5 -21t-6.5 -20h-39q0 21 9 33.5zM192 785q-37 31 -41 95h45q3 -36 26 -57t68 -21q41 0 65.5 19.5t28.5 58.5h45q-2 -59 -37 -92.5t-102 -33.5q-61 0 -98 31z" />
    <glyph glyph-name="uni1EB3" unicode="&#x1eb3;" horiz-adv-x="510"
d="M91 32.5q-47 42.5 -47 109.5q0 74 55.5 115.5t155.5 41.5h112v27q0 62 -31.5 94.5t-92.5 32.5q-45 0 -82.5 -19.5t-60.5 -56.5l-38 44q32 43 79 66t106 23q91 0 140.5 -46t49.5 -130v-240q0 -37 11 -94h-60q-7 22 -13 74h-2q-28 -40 -70 -62t-92 -22q-73 0 -120 42.5z
M292 62q34 16 54.5 43.5t20.5 58.5v82h-115q-67 0 -103.5 -27t-36.5 -77q0 -43 29 -69.5t77 -26.5q40 0 74 16zM238 717.5q9 12.5 26 25.5q13 10 19.5 18t6.5 20q0 13 -9.5 21t-26.5 8q-14 0 -28 -7.5t-22 -22.5l-25 21q12 20 32.5 32t46.5 12q31 0 51.5 -17t20.5 -46
q0 -19 -9 -31.5t-25 -25.5q-15 -13 -21.5 -21t-6.5 -20h-39q0 21 9 33.5zM154 585q-37 31 -41 95h45q3 -36 26 -57t68 -21q41 0 65.5 19.5t28.5 58.5h45q-2 -59 -37 -92.5t-102 -33.5q-61 0 -98 31z" />
    <glyph glyph-name="uni1EB4" unicode="&#x1eb4;" horiz-adv-x="581"
d="M431 164h-281l-52 -164h-80l237 700h71l237 -700h-80zM412 225l-121 385l-122 -385h243zM315.5 926.5q-13.5 6.5 -31.5 18.5q-15 11 -25.5 16t-21.5 5q-29 0 -41 -41h-35q7 39 27 60t51 21q14 0 25.5 -5t22 -11t13.5 -8q31 -21 48 -21q31 0 40 44h34q-6 -41 -26 -63
t-52 -22q-15 0 -28.5 6.5zM192 785q-37 31 -41 95h45q3 -36 26 -57t68 -21q41 0 65.5 19.5t28.5 58.5h45q-2 -59 -37 -92.5t-102 -33.5q-61 0 -98 31z" />
    <glyph glyph-name="uni1EB5" unicode="&#x1eb5;" horiz-adv-x="510"
d="M91 32.5q-47 42.5 -47 109.5q0 74 55.5 115.5t155.5 41.5h112v27q0 62 -31.5 94.5t-92.5 32.5q-45 0 -82.5 -19.5t-60.5 -56.5l-38 44q32 43 79 66t106 23q91 0 140.5 -46t49.5 -130v-240q0 -37 11 -94h-60q-7 22 -13 74h-2q-28 -40 -70 -62t-92 -22q-73 0 -120 42.5z
M292 62q34 16 54.5 43.5t20.5 58.5v82h-115q-67 0 -103.5 -27t-36.5 -77q0 -43 29 -69.5t77 -26.5q40 0 74 16zM277.5 726.5q-13.5 6.5 -31.5 18.5q-15 11 -25.5 16t-21.5 5q-29 0 -41 -41h-35q7 39 27 60t51 21q14 0 25.5 -5t22 -11t13.5 -8q31 -21 48 -21q31 0 40 44h34
q-6 -41 -26 -63t-52 -22q-15 0 -28.5 6.5zM154 585q-37 31 -41 95h45q3 -36 26 -57t68 -21q41 0 65.5 19.5t28.5 58.5h45q-2 -59 -37 -92.5t-102 -33.5q-61 0 -98 31z" />
    <glyph glyph-name="uni1EB6" unicode="&#x1eb6;" horiz-adv-x="581"
d="M431 164h-281l-52 -164h-80l237 700h71l237 -700h-80zM412 225l-121 385l-122 -385h243zM256.5 -150q-13.5 13 -13.5 32q0 20 13.5 33t33.5 13t33.5 -13t13.5 -33q0 -19 -13.5 -32t-33.5 -13t-33.5 13zM192 785q-37 31 -41 95h45q3 -36 26 -57t68 -21q41 0 65.5 19.5
t28.5 58.5h45q-2 -59 -37 -92.5t-102 -33.5q-61 0 -98 31z" />
    <glyph glyph-name="uni1EB7" unicode="&#x1eb7;" horiz-adv-x="510"
d="M91 32.5q-47 42.5 -47 109.5q0 74 55.5 115.5t155.5 41.5h112v27q0 62 -31.5 94.5t-92.5 32.5q-45 0 -82.5 -19.5t-60.5 -56.5l-38 44q32 43 79 66t106 23q91 0 140.5 -46t49.5 -130v-240q0 -37 11 -94h-60q-7 22 -13 74h-2q-28 -40 -70 -62t-92 -22q-73 0 -120 42.5z
M292 62q34 16 54.5 43.5t20.5 58.5v82h-115q-67 0 -103.5 -27t-36.5 -77q0 -43 29 -69.5t77 -26.5q40 0 74 16zM218.5 -150q-13.5 13 -13.5 32q0 20 13.5 33t33.5 13t33.5 -13t13.5 -33q0 -19 -13.5 -32t-33.5 -13t-33.5 13zM154 585q-37 31 -41 95h45q3 -36 26 -57t68 -21
q41 0 65.5 19.5t28.5 58.5h45q-2 -59 -37 -92.5t-102 -33.5q-61 0 -98 31z" />
    <glyph glyph-name="uni1EB8" unicode="&#x1eb8;" horiz-adv-x="546"
d="M86 700h404v-62h-330v-238h295v-63h-295v-275h330v-62h-404v700zM259.5 -150q-13.5 13 -13.5 32q0 20 13.5 33t33.5 13t33.5 -13t13.5 -33q0 -19 -13.5 -32t-33.5 -13t-33.5 13z" />
    <glyph glyph-name="uni1EB9" unicode="&#x1eb9;" horiz-adv-x="510"
d="M472 222h-364q6 -83 47.5 -128t112.5 -45q45 0 82 19.5t61 54.5l41 -39q-29 -45 -77.5 -69.5t-108.5 -24.5q-107 0 -167.5 68.5t-60.5 190.5t59.5 191.5t164.5 69.5q99 0 154.5 -67t55.5 -187v-34zM408 284q0 78 -40 123.5t-108 45.5t-107.5 -46t-44.5 -131h300v8z
M231.5 -150q-13.5 13 -13.5 32q0 20 13.5 33t33.5 13t33.5 -13t13.5 -33q0 -19 -13.5 -32t-33.5 -13t-33.5 13z" />
    <glyph glyph-name="uni1EBA" unicode="&#x1eba;" horiz-adv-x="546"
d="M86 700h404v-62h-330v-238h295v-63h-295v-275h330v-62h-404v700zM274 792q10 15 29 32q16 14 24.5 26t8.5 29q0 15 -11 24.5t-33 9.5q-40 0 -63 -44l-33 29q13 27 39.5 42.5t62.5 15.5q42 0 67 -19t25 -57q0 -25 -11 -42t-31 -36q-15 -14 -22.5 -24.5t-7.5 -23.5h-54
q0 23 10 38z" />
    <glyph glyph-name="uni1EBB" unicode="&#x1ebb;" horiz-adv-x="510"
d="M472 222h-364q6 -83 47.5 -128t112.5 -45q45 0 82 19.5t61 54.5l41 -39q-29 -45 -77.5 -69.5t-108.5 -24.5q-107 0 -167.5 68.5t-60.5 190.5t59.5 191.5t164.5 69.5q99 0 154.5 -67t55.5 -187v-34zM408 284q0 78 -40 123.5t-108 45.5t-107.5 -46t-44.5 -131h300v8z
M245 592q10 15 29 32q16 14 24.5 26t8.5 29q0 15 -11 24.5t-33 9.5q-40 0 -63 -44l-33 29q13 27 39.5 42.5t62.5 15.5q42 0 67 -19t25 -57q0 -25 -11 -42t-31 -36q-15 -14 -22.5 -24.5t-7.5 -23.5h-54q0 23 10 38z" />
    <glyph glyph-name="uni1EBC" unicode="&#x1ebc;" horiz-adv-x="546"
d="M86 700h404v-62h-330v-238h295v-63h-295v-275h330v-62h-404v700zM174 819.5q20 26.5 54 26.5q18 0 34.5 -7t38.5 -20q33 -20 48 -20q28 0 32 51h44q-1 -41 -22 -68.5t-55 -27.5q-18 0 -35 7.5t-38 20.5q-12 7 -24 13t-21 6q-13 0 -22 -12.5t-10 -34.5h-45q1 39 21 65.5z
" />
    <glyph glyph-name="uni1EBD" unicode="&#x1ebd;" horiz-adv-x="510"
d="M472 222h-364q6 -83 47.5 -128t112.5 -45q45 0 82 19.5t61 54.5l41 -39q-29 -45 -77.5 -69.5t-108.5 -24.5q-107 0 -167.5 68.5t-60.5 190.5t59.5 191.5t164.5 69.5q99 0 154.5 -67t55.5 -187v-34zM408 284q0 78 -40 123.5t-108 45.5t-107.5 -46t-44.5 -131h300v8z
M145 619.5q20 26.5 54 26.5q18 0 34.5 -7t38.5 -20q33 -20 48 -20q28 0 32 51h44q-1 -41 -22 -68.5t-55 -27.5q-18 0 -35 7.5t-38 20.5q-12 7 -24 13t-21 6q-13 0 -22 -12.5t-10 -34.5h-45q1 39 21 65.5z" />
    <glyph glyph-name="uni1EBE" unicode="&#x1ebe;" horiz-adv-x="546"
d="M86 700h404v-62h-330v-238h295v-63h-295v-275h330v-62h-404v700zM425 962h61l-63 -101h-45zM267 890h53l103 -136h-60l-70 91l-70 -91h-60z" />
    <glyph glyph-name="uni1EBF" unicode="&#x1ebf;" horiz-adv-x="510"
d="M472 222h-364q6 -83 47.5 -128t112.5 -45q45 0 82 19.5t61 54.5l41 -39q-29 -45 -77.5 -69.5t-108.5 -24.5q-107 0 -167.5 68.5t-60.5 190.5t59.5 191.5t164.5 69.5q99 0 154.5 -67t55.5 -187v-34zM408 284q0 78 -40 123.5t-108 45.5t-107.5 -46t-44.5 -131h300v8z
M396 762h61l-63 -101h-45zM238 690h53l103 -136h-60l-70 91l-70 -91h-60z" />
    <glyph glyph-name="uni1EC0" unicode="&#x1ec0;" horiz-adv-x="546"
d="M86 700h404v-62h-330v-238h295v-63h-295v-275h330v-62h-404v700zM348 962h61l47 -101h-45zM267 890h53l103 -136h-60l-70 91l-70 -91h-60z" />
    <glyph glyph-name="uni1EC1" unicode="&#x1ec1;" horiz-adv-x="510"
d="M472 222h-364q6 -83 47.5 -128t112.5 -45q45 0 82 19.5t61 54.5l41 -39q-29 -45 -77.5 -69.5t-108.5 -24.5q-107 0 -167.5 68.5t-60.5 190.5t59.5 191.5t164.5 69.5q99 0 154.5 -67t55.5 -187v-34zM408 284q0 78 -40 123.5t-108 45.5t-107.5 -46t-44.5 -131h300v8z
M319 762h61l47 -101h-45zM238 690h53l103 -136h-60l-70 91l-70 -91h-60z" />
    <glyph glyph-name="uni1EC2" unicode="&#x1ec2;" horiz-adv-x="546"
d="M86 700h404v-62h-330v-238h295v-63h-295v-275h330v-62h-404v700zM414.5 891q8.5 12 25.5 26q13 9 19.5 17.5t6.5 20.5t-9 19.5t-25 7.5q-14 0 -27.5 -8t-22.5 -23l-26 23q11 20 32 32t48 12q32 0 52 -16.5t20 -45.5q0 -19 -9 -31.5t-25 -25.5q-15 -13 -21.5 -21t-6.5 -20
h-40q0 21 8.5 33zM267 890h53l103 -136h-60l-70 91l-70 -91h-60z" />
    <glyph glyph-name="uni1EC3" unicode="&#x1ec3;" horiz-adv-x="510"
d="M472 222h-364q6 -83 47.5 -128t112.5 -45q45 0 82 19.5t61 54.5l41 -39q-29 -45 -77.5 -69.5t-108.5 -24.5q-107 0 -167.5 68.5t-60.5 190.5t59.5 191.5t164.5 69.5q99 0 154.5 -67t55.5 -187v-34zM408 284q0 78 -40 123.5t-108 45.5t-107.5 -46t-44.5 -131h300v8z
M385.5 691q8.5 12 25.5 26q13 9 19.5 17.5t6.5 20.5t-9 19.5t-25 7.5q-14 0 -27.5 -8t-22.5 -23l-26 23q11 20 32 32t48 12q32 0 52 -16.5t20 -45.5q0 -19 -9 -31.5t-25 -25.5q-15 -13 -21.5 -21t-6.5 -20h-40q0 21 8.5 33zM238 690h53l103 -136h-60l-70 91l-70 -91h-60z
" />
    <glyph glyph-name="uni1EC4" unicode="&#x1ec4;" horiz-adv-x="546"
d="M86 700h404v-62h-330v-238h295v-63h-295v-275h330v-62h-404v700zM319.5 927.5q-12.5 6.5 -31.5 18.5q-17 11 -27 16t-21 5q-29 0 -41 -41h-35q7 38 26.5 59t50.5 22q15 0 29.5 -6.5t32.5 -17.5q3 -2 13 -8t19 -9t16 -3q16 0 25.5 10.5t14.5 32.5h34q-6 -41 -26 -63
t-53 -22q-14 0 -26.5 6.5zM267 890h53l103 -136h-60l-70 91l-70 -91h-60z" />
    <glyph glyph-name="uni1EC5" unicode="&#x1ec5;" horiz-adv-x="510"
d="M472 222h-364q6 -83 47.5 -128t112.5 -45q45 0 82 19.5t61 54.5l41 -39q-29 -45 -77.5 -69.5t-108.5 -24.5q-107 0 -167.5 68.5t-60.5 190.5t59.5 191.5t164.5 69.5q99 0 154.5 -67t55.5 -187v-34zM408 284q0 78 -40 123.5t-108 45.5t-107.5 -46t-44.5 -131h300v8z
M290.5 727.5q-12.5 6.5 -31.5 18.5q-17 11 -27 16t-21 5q-29 0 -41 -41h-35q7 38 26.5 59t50.5 22q15 0 29.5 -6.5t32.5 -17.5q3 -2 13 -8t19 -9t16 -3q16 0 25.5 10.5t14.5 32.5h34q-6 -41 -26 -63t-53 -22q-14 0 -26.5 6.5zM238 690h53l103 -136h-60l-70 91l-70 -91h-60z
" />
    <glyph glyph-name="uni1EC6" unicode="&#x1ec6;" horiz-adv-x="546"
d="M86 700h404v-62h-330v-238h295v-63h-295v-275h330v-62h-404v700zM259.5 -150q-13.5 13 -13.5 32q0 20 13.5 33t33.5 13t33.5 -13t13.5 -33q0 -19 -13.5 -32t-33.5 -13t-33.5 13zM267 890h53l103 -136h-60l-70 91l-70 -91h-60z" />
    <glyph glyph-name="uni1EC7" unicode="&#x1ec7;" horiz-adv-x="510"
d="M472 222h-364q6 -83 47.5 -128t112.5 -45q45 0 82 19.5t61 54.5l41 -39q-29 -45 -77.5 -69.5t-108.5 -24.5q-107 0 -167.5 68.5t-60.5 190.5t59.5 191.5t164.5 69.5q99 0 154.5 -67t55.5 -187v-34zM408 284q0 78 -40 123.5t-108 45.5t-107.5 -46t-44.5 -131h300v8z
M231.5 -150q-13.5 13 -13.5 32q0 20 13.5 33t33.5 13t33.5 -13t13.5 -33q0 -19 -13.5 -32t-33.5 -13t-33.5 13zM238 690h53l103 -136h-60l-70 91l-70 -91h-60z" />
    <glyph glyph-name="uni1EC8" unicode="&#x1ec8;" horiz-adv-x="284"
d="M105 700h74v-700h-74v700zM124 792q10 15 29 32q16 14 24.5 26t8.5 29q0 15 -11 24.5t-33 9.5q-40 0 -63 -44l-33 29q13 27 39.5 42.5t62.5 15.5q42 0 67 -19t25 -57q0 -25 -11 -42t-31 -36q-15 -14 -22.5 -24.5t-7.5 -23.5h-54q0 23 10 38z" />
    <glyph glyph-name="uni1EC9" unicode="&#x1ec9;" horiz-adv-x="244"
d="M87 500h70v-500h-70v500zM103 592q10 15 29 32q16 14 24.5 26t8.5 29q0 15 -11 24.5t-33 9.5q-40 0 -63 -44l-33 29q13 27 39.5 42.5t62.5 15.5q42 0 67 -19t25 -57q0 -25 -11 -42t-31 -36q-15 -14 -22.5 -24.5t-7.5 -23.5h-54q0 23 10 38z" />
    <glyph glyph-name="uni1ECA" unicode="&#x1eca;" horiz-adv-x="284"
d="M105 700h74v-700h-74v700zM109.5 -150q-13.5 13 -13.5 32q0 20 13.5 33t33.5 13t33.5 -13t13.5 -33q0 -19 -13.5 -32t-33.5 -13t-33.5 13z" />
    <glyph glyph-name="uni1ECB" unicode="&#x1ecb;" horiz-adv-x="236"
d="M79.5 611q-14.5 14 -14.5 37q0 24 14.5 38t38.5 14t38.5 -14t14.5 -38q0 -23 -14.5 -37t-38.5 -14t-38.5 14zM83 500h70v-500h-70v500zM84.5 -150q-13.5 13 -13.5 32q0 20 13.5 33t33.5 13t33.5 -13t13.5 -33q0 -19 -13.5 -32t-33.5 -13t-33.5 13z" />
    <glyph glyph-name="uni1ECC" unicode="&#x1ecc;" horiz-adv-x="655"
d="M174 34q-66 44 -101.5 125t-35.5 191t35.5 191t101.5 125t154 44t153.5 -44t101 -125t35.5 -191t-35.5 -191t-101 -125t-153.5 -44t-154 44zM443 87.5q49 36.5 75 104t26 158.5t-26 158.5t-75 104t-115 36.5t-115 -36.5t-75.5 -104t-26.5 -158.5t26.5 -158.5t75.5 -104
t115 -36.5t115 36.5zM294.5 -150q-13.5 13 -13.5 32q0 20 13.5 33t33.5 13t33.5 -13t13.5 -33q0 -19 -13.5 -32t-33.5 -13t-33.5 13z" />
    <glyph glyph-name="uni1ECD" unicode="&#x1ecd;" horiz-adv-x="550"
d="M149.5 22q-53.5 32 -82.5 91t-29 137t29 137t82.5 91t125.5 32t125.5 -32t82.5 -91t29 -137t-29 -137t-82.5 -91t-125.5 -32t-125.5 32zM397.5 100.5q45.5 55.5 45.5 149.5t-45.5 149.5t-122.5 55.5t-122.5 -55.5t-45.5 -149.5t45.5 -149.5t122.5 -55.5t122.5 55.5z
M241.5 -150q-13.5 13 -13.5 32q0 20 13.5 33t33.5 13t33.5 -13t13.5 -33q0 -19 -13.5 -32t-33.5 -13t-33.5 13z" />
    <glyph glyph-name="uni1ECE" unicode="&#x1ece;" horiz-adv-x="655"
d="M174 34q-66 44 -101.5 125t-35.5 191t35.5 191t101.5 125t154 44t153.5 -44t101 -125t35.5 -191t-35.5 -191t-101 -125t-153.5 -44t-154 44zM443 87.5q49 36.5 75 104t26 158.5t-26 158.5t-75 104t-115 36.5t-115 -36.5t-75.5 -104t-26.5 -158.5t26.5 -158.5t75.5 -104
t115 -36.5t115 36.5zM309 792q10 15 29 32q16 14 24.5 26t8.5 29q0 15 -11 24.5t-33 9.5q-40 0 -63 -44l-33 29q13 27 39.5 42.5t62.5 15.5q42 0 67 -19t25 -57q0 -25 -11 -42t-31 -36q-15 -14 -22.5 -24.5t-7.5 -23.5h-54q0 23 10 38z" />
    <glyph glyph-name="uni1ECF" unicode="&#x1ecf;" horiz-adv-x="550"
d="M149.5 22q-53.5 32 -82.5 91t-29 137t29 137t82.5 91t125.5 32t125.5 -32t82.5 -91t29 -137t-29 -137t-82.5 -91t-125.5 -32t-125.5 32zM397.5 100.5q45.5 55.5 45.5 149.5t-45.5 149.5t-122.5 55.5t-122.5 -55.5t-45.5 -149.5t45.5 -149.5t122.5 -55.5t122.5 55.5z
M256 592q10 15 29 32q16 14 24.5 26t8.5 29q0 15 -11 24.5t-33 9.5q-40 0 -63 -44l-33 29q13 27 39.5 42.5t62.5 15.5q42 0 67 -19t25 -57q0 -25 -11 -42t-31 -36q-15 -14 -22.5 -24.5t-7.5 -23.5h-54q0 23 10 38z" />
    <glyph glyph-name="uni1ED0" unicode="&#x1ed0;" horiz-adv-x="655"
d="M174 34q-66 44 -101.5 125t-35.5 191t35.5 191t101.5 125t154 44t153.5 -44t101 -125t35.5 -191t-35.5 -191t-101 -125t-153.5 -44t-154 44zM443 87.5q49 36.5 75 104t26 158.5t-26 158.5t-75 104t-115 36.5t-115 -36.5t-75.5 -104t-26.5 -158.5t26.5 -158.5t75.5 -104
t115 -36.5t115 36.5zM460 962h61l-63 -101h-45zM302 890h53l103 -136h-60l-70 91l-70 -91h-60z" />
    <glyph glyph-name="uni1ED1" unicode="&#x1ed1;" horiz-adv-x="550"
d="M149.5 22q-53.5 32 -82.5 91t-29 137t29 137t82.5 91t125.5 32t125.5 -32t82.5 -91t29 -137t-29 -137t-82.5 -91t-125.5 -32t-125.5 32zM397.5 100.5q45.5 55.5 45.5 149.5t-45.5 149.5t-122.5 55.5t-122.5 -55.5t-45.5 -149.5t45.5 -149.5t122.5 -55.5t122.5 55.5z
M407 762h61l-63 -101h-45zM249 690h53l103 -136h-60l-70 91l-70 -91h-60z" />
    <glyph glyph-name="uni1ED2" unicode="&#x1ed2;" horiz-adv-x="655"
d="M174 34q-66 44 -101.5 125t-35.5 191t35.5 191t101.5 125t154 44t153.5 -44t101 -125t35.5 -191t-35.5 -191t-101 -125t-153.5 -44t-154 44zM443 87.5q49 36.5 75 104t26 158.5t-26 158.5t-75 104t-115 36.5t-115 -36.5t-75.5 -104t-26.5 -158.5t26.5 -158.5t75.5 -104
t115 -36.5t115 36.5zM383 962h61l47 -101h-45zM302 890h53l103 -136h-60l-70 91l-70 -91h-60z" />
    <glyph glyph-name="uni1ED3" unicode="&#x1ed3;" horiz-adv-x="550"
d="M149.5 22q-53.5 32 -82.5 91t-29 137t29 137t82.5 91t125.5 32t125.5 -32t82.5 -91t29 -137t-29 -137t-82.5 -91t-125.5 -32t-125.5 32zM397.5 100.5q45.5 55.5 45.5 149.5t-45.5 149.5t-122.5 55.5t-122.5 -55.5t-45.5 -149.5t45.5 -149.5t122.5 -55.5t122.5 55.5z
M330 762h61l47 -101h-45zM249 690h53l103 -136h-60l-70 91l-70 -91h-60z" />
    </font>
</defs>
</svg>
