<?xml version="1.0" standalone="no"?>
<!DOCTYPE svg PUBLIC "-//W3C//DTD SVG 1.1//EN" "http://www.w3.org/Graphics/SVG/1.1/DTD/svg11.dtd" >
<svg xmlns="http://www.w3.org/2000/svg" xmlns:xlink="http://www.w3.org/1999/xlink" version="1.1">
<metadata>
Created by FontForge 20201107 at Fri Sep  7 16:57:26 2018
 By
Copyright 2018 The Sarabun Project Authors (https://github.com/cadsondemak/Sarabun)
</metadata>
<defs>
<font id="Sarabun-Regular" horiz-adv-x="0" >
  <font-face
    font-family="Sarabun"
    font-weight="400"
    font-stretch="normal"
    units-per-em="1000"
    panose-1="0 0 5 0 0 0 0 0 0 0"
    ascent="800"
    descent="-200"
    x-height="500"
    cap-height="700"
    bbox="-662 -535 1236 1265"
    underline-thickness="50"
    underline-position="-100"
    unicode-range="U+000D-FB02"
  />
<missing-glyph horiz-adv-x="700"
d="M100 750h500v-750h-500v750zM556 41v668h-412v-668h412z" />
    <glyph glyph-name="fi" unicode="fi" horiz-adv-x="565"
d="M91 438h-83v62h83v63q0 71 42.5 112.5t115.5 41.5q30 0 56.5 -9.5t42.5 -25.5l-31 -53q-25 22 -63 22q-36 0 -57 -24t-21 -66v-61h143v-62h-143v-438h-85v438zM404 602q-16 15 -16 41t16 41.5t44 15.5t44.5 -15.5t16.5 -41.5t-16.5 -41t-44.5 -15t-44 15zM406 500h85
v-500h-85v500z" />
    <glyph glyph-name="fl" unicode="fl" horiz-adv-x="615"
d="M91 438h-83v62h83v63q0 71 42.5 112.5t115.5 41.5q30 0 56.5 -9.5t42.5 -25.5l-31 -53q-25 22 -63 22q-36 0 -57 -24t-21 -66v-61h143v-62h-143v-438h-85v438zM396 117v625h85v-624q0 -35 11.5 -49.5t39.5 -14.5q22 0 50 12l13 -51q-38 -25 -91 -25q-108 0 -108 127z" />
    <glyph glyph-name="uni0E240E45" unicode="&#xe24;&#xe45;" horiz-adv-x="880"
d="M760 544q46 -42 46 -121v-673h-85v671q0 47 -26 71.5t-75 24.5q-51 0 -80 -34.5t-33 -98.5v-634h-84v626q0 64 -39 102.5t-104 38.5q-54 0 -96 -24.5t-58 -66.5q36 -4 68 -18t49 -32v-18q-38 -11 -59.5 -38.5t-21.5 -64.5v-69q15 5 29 5q45 0 73 -27.5t28 -72.5
t-29.5 -73t-76.5 -28q-48 0 -78.5 29.5t-30.5 76.5v156q0 37 19.5 67t53.5 45q-40 14 -107 17q4 61 35.5 107.5t85 72t122.5 25.5q60 0 106.5 -21.5t75.5 -60.5q26 40 66.5 61t92.5 21q87 0 133 -42zM223.5 124q-13.5 13 -33.5 13q-21 0 -34 -13t-13 -33q0 -21 13 -34
t34 -13q20 0 33.5 13t13.5 34q0 20 -13.5 33z" />
    <glyph glyph-name="uni0E260E45" unicode="&#xe26;&#xe45;" horiz-adv-x="911"
d="M791 544q46 -42 46 -121v-673h-85v671q0 47 -26 71.5t-75 24.5q-51 0 -80 -34.5t-33 -98.5v-634h-84v626q0 65 -38 103t-101 38q-53 0 -92 -24t-55 -67q37 -4 69.5 -18t49.5 -32v-18q-33 -9 -51 -34.5t-18 -58.5q0 -22 9 -69q12 -64 12 -97q0 -49 -30.5 -79t-79.5 -30
q-47 0 -76.5 28t-29.5 73t27.5 74t72.5 29q11 0 29 -4q-12 39 -12 72t14.5 61t39.5 41q-37 14 -109 17q4 60 33.5 106.5t81.5 72.5t121 26q60 0 106 -20.5t74 -58.5q26 38 66 58.5t91 20.5q87 0 133 -42zM159.5 58.5q13.5 13.5 13.5 33.5t-13.5 33.5t-33.5 13.5t-33.5 -13.5
t-13.5 -33.5t13.5 -33.5t33.5 -13.5t33.5 13.5z" />
    <glyph glyph-name=".notdef" horiz-adv-x="700"
d="M100 750h500v-750h-500v750zM556 41v668h-412v-668h412z" />
    <glyph glyph-name=".null"
 />
    <glyph glyph-name="nonmarkingreturn" unicode="&#xd;" horiz-adv-x="243"
 />
    <glyph glyph-name="NULL"
 />
    <glyph glyph-name="NULL"
 />
    <glyph glyph-name="space" unicode=" " horiz-adv-x="243"
 />
    <glyph glyph-name="exclam" unicode="!" horiz-adv-x="237"
d="M67 700h102l-12 -507h-78zM69 8q-19 18 -19 47t19 47.5t49 18.5q31 0 50 -18.5t19 -47.5t-19 -47t-50 -18q-30 0 -49 18z" />
    <glyph glyph-name="quotedbl" unicode="&#x22;" horiz-adv-x="354"
d="M50 710h92l-10 -247h-72zM212 710h92l-10 -247h-72z" />
    <glyph glyph-name="numbersign" unicode="#" horiz-adv-x="686"
d="M545 431l-21 -163h89v-69h-97l-25 -199h-84l25 199h-206l-25 -199h-84l25 199h-89v69h97l21 163h-98v70h106l25 199h84l-25 -199h206l25 199h84l-25 -199h80v-70h-88zM461 431h-206l-21 -163h206z" />
    <glyph glyph-name="dollar" unicode="$" horiz-adv-x="529"
d="M442 58q-47 -50 -127 -64v-74h-79v71q-61 5 -113 33.5t-85 74.5l56 56q31 -40 78 -64.5t93 -24.5q59 0 95.5 30t36.5 79q0 32 -12.5 56t-43 46.5t-86.5 49.5q-107 52 -150.5 98.5t-43.5 108.5q0 72 47 118.5t128 55.5v61h79v-62q54 -8 96.5 -35.5t64.5 -68.5l-60 -44
q-24 35 -62 55t-80 20q-56 0 -88.5 -26.5t-32.5 -71.5q0 -27 12 -46t44.5 -39.5t102.5 -55.5q95 -47 136 -96.5t41 -116.5q0 -74 -47 -124z" />
    <glyph glyph-name="percent" unicode="%" horiz-adv-x="903"
d="M90 367.5q-43 54.5 -43 143.5q0 90 43 144.5t115 54.5q71 0 114.5 -54.5t43.5 -144.5q0 -89 -43.5 -143.5t-114.5 -54.5q-72 0 -115 54.5zM617 700h93l-429 -713h-92zM264 414.5q22 36.5 22 96.5t-22 96.5t-59 36.5q-38 0 -60 -36.5t-22 -96.5t22 -96.5t60 -36.5
q37 0 59 36.5zM583 44.5q-43 54.5 -43 144.5q0 89 43 143.5t115 54.5q71 0 114.5 -54.5t43.5 -143.5q0 -90 -43.5 -144.5t-114.5 -54.5q-72 0 -115 54.5zM757 92.5q22 36.5 22 96.5t-22 96.5t-59 36.5q-38 0 -60 -36.5t-22 -96.5t22 -96.5t60 -36.5q37 0 59 36.5z" />
    <glyph glyph-name="ampersand" unicode="&#x26;" horiz-adv-x="668"
d="M586 -10q-39 31 -89 75q-44 -36 -98.5 -55.5t-116.5 -19.5q-73 0 -128.5 26t-85.5 73t-30 108q0 63 38 115t105 84q-58 90 -58 161q0 68 46.5 110.5t123.5 42.5q74 0 120 -40.5t46 -107.5q0 -119 -155 -199q4 -3 10 -11q67 -78 177 -177q40 60 52 144h83
q-13 -115 -74 -196q36 -32 86 -72zM231.5 617q-23.5 -23 -23.5 -61q0 -60 59 -144q56 33 81.5 72.5t25.5 75.5q0 37 -21.5 58.5t-57.5 21.5q-40 0 -63.5 -23zM439 117q-122 112 -194 195l-23 28q-43 -25 -67 -61.5t-24 -78.5q0 -60 44 -97.5t116 -37.5q87 0 148 52z" />
    <glyph glyph-name="quotesingle" unicode="'" horiz-adv-x="192"
d="M50 710h92l-10 -247h-72z" />
    <glyph glyph-name="parenleft" unicode="(" horiz-adv-x="318"
d="M79.5 109.5q-39.5 104.5 -39.5 234.5t39.5 234.5t113.5 171.5h92q-74 -60 -114.5 -166.5t-40.5 -239.5t40.5 -239.5t114.5 -166.5h-92q-74 67 -113.5 171.5z" />
    <glyph glyph-name="parenright" unicode=")" horiz-adv-x="318"
d="M147.5 104.5q40.5 106.5 40.5 239.5t-40.5 239.5t-114.5 166.5h92q74 -67 113.5 -171.5t39.5 -234.5t-39.5 -234.5t-113.5 -171.5h-92q74 60 114.5 166.5z" />
    <glyph glyph-name="asterisk" unicode="*" horiz-adv-x="448"
d="M88 395l92 119l-147 -9v70l147 -10l-92 120l69 39l67 -132l67 132l69 -39l-92 -120l147 10v-70l-147 9l92 -119l-69 -40l-67 132l-67 -132z" />
    <glyph glyph-name="plus" unicode="+" horiz-adv-x="607"
d="M263 228h-212v68h212v228h80v-228h213v-68h-213v-228h-80v228z" />
    <glyph glyph-name="comma" unicode="," horiz-adv-x="252"
d="M179 101q19 -23 19 -65q0 -53 -28.5 -112t-75.5 -98l-36 41q24 24 42.5 57.5t25.5 68.5q-4 -1 -13 -1q-23 0 -38.5 17.5t-15.5 44.5q0 31 19 50.5t50 19.5q32 0 51 -23z" />
    <glyph glyph-name="hyphen" unicode="-" horiz-adv-x="340"
d="M33 297h274v-62h-274v62z" />
    <glyph glyph-name="period" unicode="." horiz-adv-x="252"
d="M81 8.5q-17 18.5 -17 47.5t17 47t45 18t45 -18t17 -47t-17 -47.5t-45 -18.5t-45 18.5z" />
    <glyph glyph-name="slash" unicode="/" horiz-adv-x="415"
d="M356 725h83l-380 -768h-83z" />
    <glyph glyph-name="zero" unicode="0" horiz-adv-x="550"
d="M99 81.5q-61 91.5 -61 268.5t61 268.5t176 91.5t176 -91.5t61 -268.5t-61 -268.5t-176 -91.5t-176 91.5zM383 133q37 73 37 217t-37 217t-108 73t-108 -73t-37 -217t37 -217t108 -73t108 73z" />
    <glyph glyph-name="one" unicode="1" horiz-adv-x="550"
d="M129 73h120v519l-138 -81v84l171 105h59v-627h119v-73h-331v73z" />
    <glyph glyph-name="two" unicode="2" horiz-adv-x="550"
d="M64 79q72 52 143.5 124.5t121.5 154.5t50 155q0 56 -32 88.5t-87 32.5q-50 0 -94.5 -24t-70.5 -64l-49 55q31 51 88.5 80t126.5 29q98 0 155 -52.5t57 -141.5q0 -106 -83.5 -221t-204.5 -222h319v-73h-440v79z" />
    <glyph glyph-name="three" unicode="3" horiz-adv-x="550"
d="M135.5 17.5q-58.5 27.5 -86.5 75.5l46 54q26 -37 72.5 -59t97.5 -22q66 0 105.5 36t39.5 93q0 63 -49.5 99t-135.5 36h-36v73h35q73 0 117 36.5t44 94.5q0 48 -31 74t-87 26q-51 0 -95 -21.5t-71 -59.5l-45 54q32 48 90.5 75.5t128.5 27.5q91 0 146.5 -45.5t55.5 -120.5
q0 -59 -35.5 -105.5t-98.5 -68.5q77 -17 118.5 -63.5t41.5 -115.5q0 -59 -29 -104.5t-82.5 -71t-123.5 -25.5q-74 0 -132.5 27.5z" />
    <glyph glyph-name="four" unicode="4" horiz-adv-x="550"
d="M350 120h-321v78l301 502h112v-504h79v-76h-79v-120h-92v120zM350 196v397l-237 -397h237z" />
    <glyph glyph-name="five" unicode="5" horiz-adv-x="550"
d="M133.5 18q-58.5 28 -88.5 75l44 59q29 -41 73.5 -63.5t96.5 -22.5q70 0 110.5 44.5t40.5 120.5q0 73 -37 115.5t-100 42.5q-39 0 -73.5 -18.5t-53.5 -49.5h-77l33 379h379v-76h-296l-18 -204q20 19 55.5 30t73.5 11q95 0 152 -62t57 -166q0 -73 -30 -128t-85 -85
t-128 -30q-70 0 -128.5 28z" />
    <glyph glyph-name="six" unicode="6" horiz-adv-x="550"
d="M156 23q-53 33 -82 93t-29 139q0 110 53 209t145 165.5t202 82.5l9 -71q-97 -22 -175 -86.5t-109 -152.5q15 20 47 33.5t71 13.5q68 0 117.5 -30t75 -82t25.5 -118t-27.5 -118t-78 -81.5t-119.5 -29.5q-72 0 -125 33zM379 107.5q37 41.5 37 112.5q0 70 -37 111.5
t-100 41.5q-62 0 -99.5 -41.5t-37.5 -111.5t37.5 -112t99.5 -42q63 0 100 41.5z" />
    <glyph glyph-name="seven" unicode="7" horiz-adv-x="550"
d="M206.5 221.5q17.5 100.5 61.5 202.5t124 200h-339v76h445v-74q-107 -117 -163 -275t-56 -351h-93q3 121 20.5 221.5z" />
    <glyph glyph-name="eight" unicode="8" horiz-adv-x="550"
d="M102.5 43.5q-62.5 53.5 -62.5 147.5q0 62 30 110t86 72q-42 18 -67 61.5t-25 95.5q0 82 57.5 131t153.5 49t153.5 -49t57.5 -131q0 -52 -25 -95.5t-67 -61.5q56 -24 86 -72t30 -110q0 -94 -62.5 -147.5t-172.5 -53.5t-172.5 53.5zM362 438q32 31 32 83q0 51 -32 82
t-87 31t-87 -31t-32 -82q0 -52 32 -83t87 -31t87 31zM380 102.5q38 36.5 38 100.5t-38 99.5t-105 35.5t-105 -35.5t-38 -99.5t38 -100.5t105 -36.5t105 36.5z" />
    <glyph glyph-name="nine" unicode="9" horiz-adv-x="550"
d="M97 59q103 23 183.5 88.5t104.5 150.5q-17 -20 -50 -33.5t-72 -13.5q-67 0 -116.5 30t-75.5 82.5t-26 117.5q0 66 27.5 118t78 81.5t119.5 29.5q72 0 125 -33t82 -94t29 -142q0 -116 -51 -213t-141 -160t-204 -80zM371 366q38 43 38 114q0 70 -37.5 112t-100.5 42
q-62 0 -99 -42t-37 -112q0 -72 36.5 -114.5t98.5 -42.5q63 0 101 43z" />
    <glyph glyph-name="colon" unicode=":" horiz-adv-x="252"
d="M81.5 366.5q-17.5 18.5 -17.5 46.5t17.5 46.5t44.5 18.5t44.5 -18.5t17.5 -46.5t-17.5 -46.5t-44.5 -18.5t-44.5 18.5zM81.5 7.5q-17.5 18.5 -17.5 46.5q0 29 17.5 47.5t44.5 18.5t44.5 -18.5t17.5 -47.5q0 -28 -17.5 -46.5t-44.5 -18.5t-44.5 18.5z" />
    <glyph glyph-name="semicolon" unicode=";" horiz-adv-x="252"
d="M81.5 366.5q-17.5 18.5 -17.5 46.5t17.5 46.5t44.5 18.5t44.5 -18.5t17.5 -46.5t-17.5 -46.5t-44.5 -18.5t-44.5 18.5zM180 101q19 -23 19 -65q0 -53 -28.5 -112t-75.5 -98l-36 41q24 24 42.5 57.5t25.5 68.5q-4 -1 -13 -1q-23 0 -38.5 17.5t-15.5 44.5q0 31 19 50.5
t50 19.5q32 0 51 -23z" />
    <glyph glyph-name="less" unicode="&#x3c;" horiz-adv-x="607"
d="M60 260v44l486 261v-75l-383 -208l383 -207v-75z" />
    <glyph glyph-name="equal" unicode="=" horiz-adv-x="607"
d="M66 398h475v-70h-475v70zM66 195h475v-70h-475v70z" />
    <glyph glyph-name="greater" unicode="&#x3e;" horiz-adv-x="607"
d="M60 75l383 207l-383 208v75l486 -261v-44l-486 -260v75z" />
    <glyph glyph-name="question" unicode="?" horiz-adv-x="454"
d="M179 210q0 43 20 79t59 88q37 49 54.5 81t17.5 68q0 113 -114 113q-41 0 -76.5 -22t-58.5 -61l-48 54q29 47 78.5 73t113.5 26q93 0 144 -47t51 -130q0 -44 -20 -79t-61 -87q-40 -48 -60 -82.5t-20 -77.5q0 -27 4 -42h-78q-6 20 -6 46zM180.5 7q-17.5 17 -17.5 45
t17.5 45t46.5 17t46.5 -17t17.5 -45t-17.5 -45t-46.5 -17t-46.5 17z" />
    <glyph glyph-name="at" unicode="@" horiz-adv-x="795"
d="M197.5 -101.5q-77.5 44.5 -120.5 124t-43 181.5q0 114 48.5 202.5t135.5 138t198 49.5q99 0 176.5 -41.5t121 -115.5t43.5 -169q0 -70 -24 -126t-67 -89t-98 -36l-39 -2l-20 64q-25 -31 -66 -51t-80 -20q-65 0 -105.5 38t-40.5 99q0 63 49 103t127 40h101v23
q0 41 -26.5 66.5t-69.5 25.5q-37 0 -73 -18t-56 -47l-36 39q26 35 72 57.5t94 22.5q71 0 115 -45t44 -117v-155q0 -35 11 -66q53 7 87 59.5t34 130.5t-34.5 138.5t-97 94.5t-142.5 34q-90 0 -160.5 -41.5t-109.5 -115.5t-39 -169q0 -84 35 -149.5t97.5 -102t142.5 -36.5
q46 0 92 11.5t73 29.5l26 -52q-33 -23 -88.5 -37.5t-110.5 -14.5q-99 0 -176.5 44.5zM428.5 76q28.5 15 47 37.5t18.5 42.5v82h-96q-53 0 -84 -25t-31 -67q0 -41 26 -63t61 -22q30 0 58.5 15z" />
    <glyph glyph-name="A" unicode="A" horiz-adv-x="596"
d="M434 151h-272l-47 -151h-98l238 700h86l238 -700h-98zM410 226l-112 359l-112 -359h224z" />
    <glyph glyph-name="B" unicode="B" horiz-adv-x="589"
d="M81 700h185q124 0 184.5 -41.5t60.5 -126.5q0 -59 -26 -97t-81 -59v-3q70 -19 102.5 -60.5t32.5 -112.5q0 -101 -58 -150.5t-176 -49.5h-224v700zM289 405q64 0 97 30.5t33 89.5q0 53 -36 77t-114 24h-96v-221h116zM308 74q140 0 140 128q0 69 -43.5 101t-137.5 32h-94
v-261h135z" />
    <glyph glyph-name="C" unicode="C" horiz-adv-x="585"
d="M176 34q-68 44 -105 125t-37 191t37.5 191t106.5 125t162 44q74 0 132 -29t86 -80l-52 -51q-55 84 -165 84q-101 0 -157.5 -74.5t-56.5 -209.5q0 -134 55.5 -209t153.5 -75q60 0 101.5 20.5t68.5 63.5l52 -51q-29 -52 -87 -80.5t-135 -28.5q-92 0 -160 44z" />
    <glyph glyph-name="D" unicode="D" horiz-adv-x="623"
d="M81 700h222q137 0 206.5 -85t69.5 -251q0 -130 -31 -209.5t-97.5 -117t-175.5 -37.5h-194v700zM291 76q102 0 149 69t47 219q0 133 -46 196.5t-142 63.5h-126v-548h118z" />
    <glyph glyph-name="E" unicode="E" horiz-adv-x="552"
d="M81 700h420v-76h-328v-218h293v-76h-293v-254h328v-76h-420v700z" />
    <glyph glyph-name="F" unicode="F" horiz-adv-x="550"
d="M81 700h425v-76h-333v-246h311v-76h-311v-302h-92v700z" />
    <glyph glyph-name="G" unicode="G" horiz-adv-x="636"
d="M575 362v-362h-62l-15 44q-33 -26 -77.5 -40t-94.5 -14q-90 0 -156 43.5t-101 124.5t-35 192q0 109 37.5 190t106 125.5t160.5 44.5q78 0 138 -29t88 -80l-51 -51q-26 41 -70.5 62.5t-103.5 21.5q-100 0 -156 -75t-56 -209q0 -136 54.5 -212t152.5 -76q46 0 84.5 13
t65.5 38v181h-167v68h258z" />
    <glyph glyph-name="H" unicode="H" horiz-adv-x="678"
d="M80 700h92v-308h334v308h92v-700h-92v316h-334v-316h-92v700z" />
    <glyph glyph-name="I" unicode="I" horiz-adv-x="292"
d="M100 700h92v-700h-92v700z" />
    <glyph glyph-name="J" unicode="J" horiz-adv-x="440"
d="M74.5 4.5q-41.5 14.5 -67.5 37.5l35 66q20 -19 51.5 -30.5t62.5 -11.5q59 0 85.5 40.5t26.5 132.5v461h92v-477q0 -121 -48 -177t-153 -56q-43 0 -84.5 14.5z" />
    <glyph glyph-name="K" unicode="K" horiz-adv-x="605"
d="M495 0l-223 349l-100 -120v-229h-92v700h92v-347l285 347h107l-231 -278l262 -422h-100z" />
    <glyph glyph-name="L" unicode="L" horiz-adv-x="548"
d="M80 700h92v-624h338v-76h-430v700z" />
    <glyph glyph-name="M" unicode="M" horiz-adv-x="798"
d="M717 700v-700h-90v530l-196 -530h-64l-196 530v-530h-90v700h106l212 -584l212 584h106z" />
    <glyph glyph-name="N" unicode="N" horiz-adv-x="682"
d="M602 700v-700h-91l-339 554v-554h-92v700h97l333 -547v547h92z" />
    <glyph glyph-name="O" unicode="O" horiz-adv-x="661"
d="M173 33.5q-67 43.5 -103 125t-36 191.5t36 191.5t103 125t158 43.5t157.5 -43.5t102.5 -125t36 -191.5t-36 -191.5t-102.5 -125t-157.5 -43.5t-158 43.5zM439.5 99q46.5 35 71 99.5t24.5 151.5t-24.5 151.5t-71 99.5t-108.5 35q-63 0 -109 -35t-71 -99.5t-25 -151.5
t25 -151.5t71 -99.5t109 -35q62 0 108.5 35z" />
    <glyph glyph-name="P" unicode="P" horiz-adv-x="573"
d="M81 700h206q116 0 175.5 -54t59.5 -158q0 -110 -62 -168.5t-178 -58.5h-109v-261h-92v700zM294 337q67 0 103.5 38t36.5 108q0 69 -38 105t-110 36h-113v-287h121z" />
    <glyph glyph-name="Q" unicode="Q" horiz-adv-x="661"
d="M569 117q-58 -92 -161 -118q77 -30 201 -45l-15 -65q-82 9 -163.5 37.5t-143.5 66.5q-118 15 -185.5 109.5t-67.5 247.5q0 110 36 191.5t103 125t158 43.5t157.5 -43.5t102.5 -125t36 -191.5q0 -141 -58 -233zM151 198.5q25 -64.5 71 -99.5t109 -35q62 0 108.5 35
t71 99.5t24.5 151.5t-24.5 151.5t-71 99.5t-108.5 35q-63 0 -109 -35t-71 -99.5t-25 -151.5t25 -151.5z" />
    <glyph glyph-name="R" unicode="R" horiz-adv-x="581"
d="M81 700h215q114 0 170 -46.5t56 -140.5q0 -70 -35 -118.5t-97 -65.5v-2q21 -14 34 -29.5t22 -37.5l105 -260h-99l-88 226q-17 44 -41 59t-75 15h-75v-300h-92v700zM291 375q143 0 143 132q0 59 -36 88t-110 29h-115v-249h118z" />
    <glyph glyph-name="S" unicode="S" horiz-adv-x="529"
d="M133.5 19q-59.5 29 -95.5 80l56 56q31 -40 78 -64.5t93 -24.5q59 0 95.5 30t36.5 79q0 32 -12.5 56t-43 46.5t-86.5 49.5q-107 52 -150.5 98.5t-43.5 108.5q0 80 58 128t154 48q67 0 122.5 -29t80.5 -78l-60 -44q-24 35 -62 55t-80 20q-56 0 -88.5 -26.5t-32.5 -71.5
q0 -27 12 -46t44.5 -39.5t102.5 -55.5q95 -47 136 -96.5t41 -116.5q0 -57 -28.5 -100.5t-80 -67.5t-119.5 -24t-127.5 29z" />
    <glyph glyph-name="T" unicode="T" horiz-adv-x="558"
d="M233 628h-216v72h523v-72h-215v-628h-92v628z" />
    <glyph glyph-name="U" unicode="U" horiz-adv-x="657"
d="M140.5 61.5q-63.5 71.5 -63.5 212.5v426h93v-424q0 -210 159 -210t159 210v424h92v-426q0 -140 -63.5 -212t-187.5 -72q-125 0 -188.5 71.5z" />
    <glyph glyph-name="V" unicode="V" horiz-adv-x="602"
d="M585 700l-239 -700h-90l-239 700h98l186 -578l186 578h98z" />
    <glyph glyph-name="W" unicode="W" horiz-adv-x="831"
d="M803 700l-145 -700h-91l-151 574l-152 -574h-91l-146 700h99l98 -559l145 559h93l144 -557l98 557h99z" />
    <glyph glyph-name="X" unicode="X" horiz-adv-x="605"
d="M249 359l-205 341h106l153 -274l152 274h107l-206 -341l215 -359h-104l-164 285l-164 -285h-105z" />
    <glyph glyph-name="Y" unicode="Y" horiz-adv-x="573"
d="M240 278l-223 422h102l167 -334l167 334h102l-222 -422v-278h-93v278z" />
    <glyph glyph-name="Z" unicode="Z" horiz-adv-x="567"
d="M34 51l372 573h-343v76h457v-53l-371 -571h384v-76h-499v51z" />
    <glyph glyph-name="bracketleft" unicode="[" horiz-adv-x="308"
d="M60 700h221v-66h-131v-679h131v-66h-221v811z" />
    <glyph glyph-name="backslash" unicode="\" horiz-adv-x="382"
d="M-24 725h83l380 -768h-83z" />
    <glyph glyph-name="bracketright" unicode="]" horiz-adv-x="308"
d="M27 -45h131v679h-131v66h221v-811h-221v66z" />
    <glyph glyph-name="asciicircum" unicode="^" horiz-adv-x="585"
d="M256 700h74l212 -474h-83l-166 383l-166 -383h-84z" />
    <glyph glyph-name="underscore" unicode="_" horiz-adv-x="323"
d="M0 -223h323v-66h-323v66z" />
    <glyph glyph-name="grave" unicode="`" horiz-adv-x="400"
d="M95 705h86l82 -151h-68z" />
    <glyph glyph-name="a" unicode="a" horiz-adv-x="514"
d="M87 33q-47 43 -47 111q0 75 56.5 116t160.5 41h103v26q0 56 -29.5 85.5t-85.5 29.5q-45 0 -82.5 -18.5t-62.5 -53.5l-43 52q34 43 83 65.5t109 22.5q94 0 145 -46t51 -132v-235q0 -39 12 -97h-74q-9 23 -13 70h-2q-28 -39 -69 -59.5t-91 -20.5q-74 0 -121 43zM291 71.5
q32 14.5 50.5 39.5t18.5 55v74h-106q-63 0 -97 -25t-34 -71q0 -40 26.5 -63.5t71.5 -23.5q38 0 70 14.5z" />
    <glyph glyph-name="b" unicode="b" horiz-adv-x="542"
d="M207 14.5q-44 24.5 -66 64.5h-2q1 -32 -2 -79h-78q3 33 3 126v616h85v-309h2q50 77 151 77q96 0 152 -67.5t56 -183.5q0 -125 -56.5 -197t-153.5 -72q-47 0 -91 24.5zM386.5 111q36.5 53 36.5 146q0 89 -36.5 138.5t-100.5 49.5q-62 0 -100.5 -42.5t-38.5 -111.5v-91
q0 -65 37.5 -103.5t101.5 -38.5t100.5 53z" />
    <glyph glyph-name="c" unicode="c" horiz-adv-x="473"
d="M95.5 58.5q-61.5 68.5 -61.5 191.5t61.5 191.5t172.5 68.5q63 0 111.5 -24.5t76.5 -70.5l-51 -46q-22 34 -57.5 53.5t-76.5 19.5q-71 0 -111.5 -50.5t-40.5 -141.5q0 -90 40.5 -141t111.5 -51q41 0 76.5 19.5t57.5 53.5l51 -46q-28 -46 -76.5 -70.5t-111.5 -24.5
q-111 0 -172.5 68.5z" />
    <glyph glyph-name="d" unicode="d" horiz-adv-x="542"
d="M90.5 62q-56.5 72 -56.5 197q0 76 26 132.5t74 87.5t112 31q92 0 148 -77h2v309h84v-616q0 -93 3 -126h-78q-2 24 -2 79h-2q-23 -40 -66 -64.5t-91 -24.5q-97 0 -153.5 72zM357.5 96.5q37.5 38.5 37.5 103.5v91q0 70 -38 112t-101 42q-64 0 -100.5 -49.5t-36.5 -138.5
q0 -93 36.5 -146t100.5 -53t101.5 38.5z" />
    <glyph glyph-name="e" unicode="e" horiz-adv-x="518"
d="M482 217h-360q7 -76 45 -115.5t105 -39.5q90 0 143 71l48 -46q-29 -46 -80.5 -71.5t-113.5 -25.5q-111 0 -172 68t-61 191q0 122 61.5 191.5t169.5 69.5q101 0 158 -68.5t57 -191.5v-33zM404 287q0 72 -37.5 113t-103.5 41q-62 0 -98.5 -42t-42.5 -119h282v7z" />
    <glyph glyph-name="f" unicode="f" horiz-adv-x="331"
d="M91 438h-83v62h83v63q0 71 42.5 112.5t115.5 41.5q30 0 56.5 -9.5t42.5 -25.5l-31 -53q-25 22 -63 22q-36 0 -57 -24t-21 -66v-61h143v-62h-143v-438h-85v438z" />
    <glyph glyph-name="g" unicode="g" horiz-adv-x="541"
d="M480 500v-484q0 -120 -59 -182t-173 -62q-50 0 -97.5 12t-85.5 34l28 62q75 -36 152 -36q156 0 156 185v46q-20 -38 -61 -60t-93 -22q-99 0 -156 71t-57 194q0 118 56 185t154 67q52 0 91.5 -21t62.5 -61h2l10 72h70zM395 283q0 76 -36 119t-100 43q-65 0 -102.5 -50.5
t-37.5 -138.5q0 -92 37 -143.5t103 -51.5q64 0 100 38.5t36 107.5v76z" />
    <glyph glyph-name="h" unicode="h" horiz-adv-x="558"
d="M61 742h85v-320q23 41 67.5 64.5t99.5 23.5q88 0 136 -58.5t48 -165.5v-286h-85v287q0 77 -29.5 117.5t-84.5 40.5q-43 0 -78 -22t-54.5 -61.5t-19.5 -88.5v-273h-85v742z" />
    <glyph glyph-name="i" unicode="i" horiz-adv-x="245"
d="M78 602q-16 15 -16 41t16 41.5t44 15.5t44.5 -15.5t16.5 -41.5t-16.5 -41t-44.5 -15t-44 15zM80 500h85v-500h-85v500z" />
    <glyph glyph-name="j" unicode="j" horiz-adv-x="247"
d="M87.5 602.5q-16.5 15.5 -16.5 40.5q0 26 16.5 41.5t44.5 15.5q27 0 43.5 -15.5t16.5 -41.5q0 -25 -16.5 -40.5t-43.5 -15.5q-28 0 -44.5 15.5zM-48 -183l3 63q16 -2 40 -2q53 0 75 30t22 94v498h85v-501q0 -93 -39 -141t-122 -48q-32 0 -64 7z" />
    <glyph glyph-name="k" unicode="k" horiz-adv-x="487"
d="M384 0l-165 251l-73 -73v-178h-85v742h85v-462l219 220h102l-191 -192l205 -308h-97z" />
    <glyph glyph-name="l" unicode="l" horiz-adv-x="291"
d="M70 117v625h85v-624q0 -35 11.5 -49.5t39.5 -14.5q22 0 50 12l13 -51q-38 -25 -91 -25q-108 0 -108 127z" />
    <glyph glyph-name="m" unicode="m" horiz-adv-x="839"
d="M61 374q0 76 -5 126h76q4 -40 4 -89h3q20 46 63 72.5t96 26.5t91 -27t51 -75q21 47 64 74.5t97 27.5q82 0 128.5 -53t46.5 -148v-309h-84v302q0 68 -28.5 104t-82.5 36q-53 0 -87 -39.5t-34 -101.5v-301h-84v298q0 73 -26 108.5t-79 35.5q-33 0 -62 -20t-46.5 -53
t-17.5 -71v-298h-84v374z" />
    <glyph glyph-name="n" unicode="n" horiz-adv-x="549"
d="M60 374q0 95 -4 126h79q4 -33 4 -89h3q22 46 67.5 72.5t101.5 26.5q88 0 132 -57t44 -170v-283h-85v284q0 80 -27 119t-82 39q-42 0 -76 -21.5t-53 -60t-19 -86.5v-274h-85v374z" />
    <glyph glyph-name="o" unicode="o" horiz-adv-x="557"
d="M149.5 21.5q-54.5 31.5 -84 90.5t-29.5 138t29.5 138t84 90.5t128.5 31.5q112 0 177.5 -70t65.5 -190t-65.5 -190t-177.5 -70q-74 0 -128.5 31.5zM394 107q42 52 42 143t-42 143t-116 52q-73 0 -115 -52t-42 -143t42 -143t115 -52q74 0 116 52z" />
    <glyph glyph-name="p" unicode="p" horiz-adv-x="545"
d="M63 374q0 64 -4 126h78q3 -37 3 -79h2q21 40 65 64.5t95 24.5q97 0 152 -69t55 -191q0 -79 -26 -137.5t-73.5 -90.5t-110.5 -32q-52 0 -91 20t-57 56h-3v-308h-85v616zM387 108.5q37 53.5 37 144.5t-36 140t-101 49q-61 0 -100 -40t-39 -102v-91q0 -69 38 -111.5
t100 -42.5q64 0 101 53.5z" />
    <glyph glyph-name="q" unicode="q" horiz-adv-x="545"
d="M397 69h-3q-21 -37 -60.5 -58t-88.5 -21q-63 0 -110.5 32t-73 91t-25.5 138q0 121 55.5 190t152.5 69q52 0 95.5 -24t63.5 -64h2q0 36 3 78h78q-4 -58 -4 -126v-616h-85v311zM359 97.5q38 42.5 38 111.5v91q0 62 -39 102t-100 40q-66 0 -101.5 -49t-35.5 -140t37 -144.5
t101 -53.5q62 0 100 42.5z" />
    <glyph glyph-name="r" unicode="r" horiz-adv-x="350"
d="M67 378q0 85 -3 122h79q4 -40 4 -88v-10h3q19 52 61 80t99 28q16 0 29 -3v-70q-13 3 -35 3q-42 0 -77 -25.5t-55 -69.5t-20 -96v-249h-85v378z" />
    <glyph glyph-name="s" unicode="s" horiz-adv-x="416"
d="M98.5 13q-45.5 23 -64.5 61l55 38q17 -27 47 -42t65 -15q42 0 69.5 24.5t27.5 61.5q0 30 -22 50t-78 41q-85 31 -119.5 65t-34.5 84q0 58 46 93.5t122 35.5q49 0 89.5 -21t62.5 -58l-52 -38q-35 52 -100 52q-37 0 -60.5 -17t-23.5 -44t24 -45.5t89 -43.5
q77 -29 109 -63.5t32 -87.5q0 -70 -50 -112t-132 -42q-56 0 -101.5 23z" />
    <glyph glyph-name="t" unicode="t" horiz-adv-x="377"
d="M138 32.5q-38 42.5 -38 117.5v284h-90v66h90v133l81 25h4v-158h142v-66h-142v-276q0 -51 19 -75.5t59 -24.5q43 0 70 11l6 -63q-33 -16 -97 -16q-66 0 -104 42.5z" />
    <glyph glyph-name="u" unicode="u" horiz-adv-x="552"
d="M105.5 46q-44.5 56 -44.5 165v289h85v-290q0 -152 108 -152q42 0 76 21.5t53 60t19 86.5v274h85v-394q0 -50 9 -106h-78q-9 44 -10 89h-3q-22 -46 -67.5 -72.5t-101.5 -26.5q-86 0 -130.5 56z" />
    <glyph glyph-name="v" unicode="v" horiz-adv-x="479"
d="M468 500l-190 -500h-77l-190 500h88l141 -400l140 400h88z" />
    <glyph glyph-name="w" unicode="w" horiz-adv-x="668"
d="M657 500l-125 -500h-77l-121 409l-121 -409h-77l-125 500h89l81 -384l114 384h78l114 -384l81 384h89z" />
    <glyph glyph-name="x" unicode="x" horiz-adv-x="460"
d="M186 254l-162 246h95l111 -186l111 186h95l-162 -246l175 -254h-96l-123 200l-123 -200h-96z" />
    <glyph glyph-name="y" unicode="y" horiz-adv-x="462"
d="M451 500l-181 -509q-69 -193 -213 -193q-26 0 -56 7v65q18 -6 44 -6q51 0 87 37t69 125l-186 474h91l134 -383l119 383h92z" />
    <glyph glyph-name="z" unicode="z" horiz-adv-x="451"
d="M26 48l289 386h-275v66h375v-49l-285 -385h295v-66h-399v48z" />
    <glyph glyph-name="braceleft" unicode="{" horiz-adv-x="320"
d="M139 -77.5q-35 36.5 -35 110.5v168q0 66 -67 70v55q67 3 67 69v168q0 74 35 110.5t112 36.5h34v-67h-36q-33 0 -46.5 -18.5t-13.5 -57.5v-170q0 -37 -13.5 -60t-48.5 -39q34 -15 48.5 -39.5t14.5 -59.5v-170q0 -39 13 -57.5t46 -18.5h36v-67h-34q-77 0 -112 36.5z" />
    <glyph glyph-name="bar" unicode="|" horiz-adv-x="242"
d="M80 700h82v-860h-82v860z" />
    <glyph glyph-name="braceright" unicode="}" horiz-adv-x="320"
d="M35 -47h36q33 0 46 18.5t13 57.5v170q0 35 14.5 59.5t48.5 39.5q-35 16 -48.5 39t-13.5 60v170q0 39 -13.5 57.5t-46.5 18.5h-36v67h34q77 0 112.5 -36.5t35.5 -110.5v-168q0 -66 66 -69v-55q-67 -4 -67 -70v-168q0 -74 -35 -110.5t-112 -36.5h-34v67z" />
    <glyph glyph-name="asciitilde" unicode="~" horiz-adv-x="607"
d="M62 210q0 61 36.5 98.5t94.5 37.5q30 0 58 -12t66 -35q34 -20 55 -29.5t42 -9.5q31 0 46 23.5t16 62.5h72v-17q0 -64 -35 -102t-92 -38q-31 0 -59.5 12t-68.5 36q-33 20 -53.5 29.5t-40.5 9.5q-30 0 -47 -23t-19 -64h-71v21z" />
    <glyph glyph-name="uni00A0" unicode="&#xa0;" horiz-adv-x="243"
 />
    <glyph glyph-name="exclamdown" unicode="&#xa1;" horiz-adv-x="237"
d="M69 397.5q-19 18.5 -19 47.5t19 47t49 18q31 0 50 -18t19 -47t-19 -47.5t-50 -18.5q-30 0 -49 18.5zM79 306h78l12 -507h-102z" />
    <glyph glyph-name="cent" unicode="&#xa2;" horiz-adv-x="473"
d="M347.5 147.5q35.5 19.5 57.5 53.5l51 -46q-25 -42 -67 -65.5t-96 -28.5v-89h-61v90q-95 11 -146.5 78.5t-51.5 179.5t51.5 179.5t146.5 78.5v90h61v-89q54 -5 96 -28.5t67 -65.5l-51 -46q-22 34 -57.5 53.5t-76.5 19.5q-71 0 -111.5 -50.5t-40.5 -141.5q0 -90 40.5 -141
t111.5 -51q41 0 76.5 19.5z" />
    <glyph glyph-name="sterling" unicode="&#xa3;" horiz-adv-x="536"
d="M243 148.5q-20 -48.5 -60 -79.5h290v-69h-418v56q58 32 91 82.5t33 98.5q0 24 -8 72h-95v61h85q-18 108 -18 148q0 88 51 140t136 52q41 0 80.5 -13.5t63.5 -37.5l-31 -65q-20 19 -49.5 30t-56.5 11q-50 0 -79 -33.5t-29 -90.5q0 -37 18 -141h165v-61h-155q6 -36 6 -64
q0 -48 -20 -96.5z" />
    <glyph glyph-name="currency" unicode="&#xa4;" horiz-adv-x="615"
d="M223.5 75q-40.5 14 -74.5 39l-59 -58l-59 57l57 57q-25 33 -39 75.5t-14 85.5t14 85.5t39 75.5l-57 57l59 57l59 -58q34 25 74.5 39t81.5 14q42 0 83.5 -14t74.5 -39l62 58l58 -60l-57 -54q24 -30 37.5 -72.5t13.5 -88.5t-13.5 -88.5t-37.5 -72.5l57 -57l-58 -57l-62 58
q-33 -25 -74.5 -39t-83.5 -14q-41 0 -81.5 14zM403 162.5q43 24.5 67.5 68.5t24.5 100t-24.5 100.5t-67.5 69.5t-97 25t-97 -25t-67 -69.5t-24 -100.5t24 -100t67 -68.5t97 -24.5t97 24.5z" />
    <glyph glyph-name="yen" unicode="&#xa5;" horiz-adv-x="578"
d="M376 354h134v-64h-168l-6 -12v-67h174v-62h-174v-149h-93v149h-176v62h176v67l-6 12h-170v63h136l-183 347h102l167 -334l167 334h102z" />
    <glyph glyph-name="brokenbar" unicode="&#xa6;" horiz-adv-x="242"
d="M80 700h82v-385h-82v385zM80 225h82v-385h-82v385z" />
    <glyph glyph-name="section" unicode="&#xa7;" horiz-adv-x="531"
d="M473.5 120q10.5 -24 10.5 -57q0 -79 -60.5 -122.5t-157.5 -43.5q-73 0 -129 27t-90 73l53 54q33 -39 76 -60.5t92 -21.5q56 0 90 23t34 67q0 28 -15.5 46.5t-40.5 32t-82 39.5l-35 16q-60 26 -90.5 44t-49 44t-18.5 66q0 59 46 101q-46 40 -46 99q0 49 26.5 86t73.5 57
t105 20q70 0 123.5 -27.5t79.5 -76.5l-52 -39q-24 34 -63 52.5t-85 18.5q-52 0 -84 -24.5t-32 -62.5q0 -27 16 -45t43 -32.5t98 -46.5q62 -28 95.5 -47t56 -48.5t22.5 -71.5q0 -55 -41 -97q20 -19 30.5 -43zM170 305.5q25 -17.5 87 -45.5l53 -25l44 -20l30 -14q21 31 21 53
q0 23 -13.5 39t-42.5 31t-95 44l-26 12q-35 15 -59 27q-24 -22 -24 -56q0 -28 25 -45.5z" />
    <glyph glyph-name="dieresis" unicode="&#xa8;" horiz-adv-x="400"
d="M63 568.5q-15 14.5 -15 36.5t14.5 36.5t37.5 14.5q22 0 37 -14.5t15 -36.5t-15 -36.5t-37 -14.5t-37 14.5zM263 568.5q-15 14.5 -15 36.5t15 36.5t37 14.5q23 0 37.5 -14.5t14.5 -36.5t-15 -36.5t-37 -14.5t-37 14.5z" />
    <glyph glyph-name="copyright" unicode="&#xa9;" horiz-adv-x="804"
d="M215.5 36q-82.5 46 -129 128t-46.5 186t46.5 186t129 128t186.5 46t186.5 -46t129 -128t46.5 -186t-46.5 -186t-129 -128t-186.5 -46t-186.5 46zM559.5 81q69.5 40 109 110.5t39.5 158.5t-39.5 158.5t-109 110.5t-157.5 40q-87 0 -157 -40t-109.5 -110.5t-39.5 -158.5
t39.5 -158.5t109.5 -110.5t157 -40q88 0 157.5 40zM280 197.5q-48 58.5 -48 155.5q0 98 49 156t130 58q44 0 79 -18.5t52 -49.5l-35 -37q-16 23 -40.5 36t-55.5 13q-53 0 -84.5 -43t-31.5 -115t31 -115t83 -43q63 0 98 50l35 -38q-18 -30 -53.5 -49t-79.5 -19
q-81 0 -129 58.5z" />
    <glyph glyph-name="ordfeminine" unicode="&#xaa;" horiz-adv-x="362"
d="M70.5 389.5q-30.5 28.5 -30.5 74.5q0 49 34.5 76.5t99.5 27.5h73v15q0 37 -17.5 55t-54.5 18q-56 0 -88 -46l-33 37q44 60 128 60q63 0 96.5 -31t33.5 -87v-155q0 -33 7 -66h-58q-1 3 -8 46q-15 -25 -42.5 -39t-61.5 -14q-48 0 -78.5 28.5zM225.5 431.5
q21.5 22.5 21.5 51.5v41h-62q-40 0 -61 -15.5t-21 -44.5q0 -27 17 -41t45 -14q39 0 60.5 22.5z" />
    <glyph glyph-name="guillemotleft" unicode="&#xab;" horiz-adv-x="515"
d="M37 260l157 196h92l-154 -196l154 -196h-92zM228 260l158 196h92l-154 -196l154 -196h-92z" />
    <glyph glyph-name="logicalnot" unicode="&#xac;" horiz-adv-x="607"
d="M483 339h-445v64h529v-274h-84v210z" />
    <glyph glyph-name="uni00AD" unicode="&#xad;" horiz-adv-x="340"
d="M33 297h274v-62h-274v62z" />
    <glyph glyph-name="registered" unicode="&#xae;" horiz-adv-x="518"
d="M408.5 654q56.5 -56 56.5 -149q0 -92 -56.5 -148t-149.5 -56t-149.5 56t-56.5 148q0 93 56.5 149t149.5 56t149.5 -56zM378.5 384q45.5 44 45.5 119q0 76 -44 121.5t-119 45.5q-76 0 -121.5 -44t-45.5 -119q0 -76 44 -121.5t119 -45.5q76 0 121.5 44zM294 480l48 -90h-46
l-47 87h-32v-87h-43v235h93q80 0 80 -71q0 -61 -53 -74zM305 554q0 20 -11.5 27.5t-39.5 7.5h-37v-76h39q49 0 49 41z" />
    <glyph glyph-name="macron" unicode="&#xaf;" horiz-adv-x="400"
d="M33 628h334v-54h-334v54z" />
    <glyph glyph-name="degree" unicode="&#xb0;" horiz-adv-x="315"
d="M63 487q-36 36 -36 93q0 58 36 94t94 36t94.5 -36t36.5 -94q0 -57 -36.5 -93t-94.5 -36t-94 36zM212.5 524q21.5 22 21.5 56q0 35 -21.5 57t-55.5 22t-55 -22t-21 -57t21 -56.5t55 -21.5t55.5 22z" />
    <glyph glyph-name="plusminus" unicode="&#xb1;" horiz-adv-x="607"
d="M343 304v-188h-80v188h-212v65h212v188h80v-188h213v-65h-213zM60 64h488v-64h-488v64z" />
    <glyph glyph-name="uni00B2" unicode="&#xb2;" horiz-adv-x="400"
d="M46 269q81 58 149 140.5t68 153.5q0 35 -21 55.5t-57 20.5q-33 0 -61.5 -16.5t-47.5 -44.5l-42 46q23 39 65.5 60t91.5 21q73 0 114 -37t41 -102q0 -122 -191 -295h211v-63h-320v61z" />
    <glyph glyph-name="uni00B3" unicode="&#xb3;" horiz-adv-x="400"
d="M99.5 219q-42.5 20 -62.5 54l40 47q20 -26 51.5 -40.5t63.5 -14.5q40 0 64.5 23.5t24.5 59.5q0 40 -30 62.5t-83 22.5h-33v61h32q45 0 71.5 23t26.5 59q0 29 -20.5 46t-54.5 17q-33 0 -63 -15t-49 -39l-39 46q24 35 67.5 54.5t93.5 19.5q66 0 106.5 -33t40.5 -88
q0 -38 -23 -70t-63 -47q49 -14 76 -47t27 -77q0 -65 -46.5 -104.5t-122.5 -39.5q-53 0 -95.5 20z" />
    <glyph glyph-name="acute" unicode="&#xb4;" horiz-adv-x="400"
d="M205 705h86l-100 -151h-68z" />
    <glyph glyph-name="uni00B5" unicode="&#xb5;" horiz-adv-x="552"
d="M61 500h84v-290q0 -72 29 -112t86 -40q63 0 102.5 48.5t39.5 123.5v270h85v-394q0 -47 9 -106h-77q-8 31 -11 82h-3q-45 -92 -145 -92q-35 0 -65.5 12t-49.5 36v-253h-84v715z" />
    <glyph glyph-name="paragraph" unicode="&#xb6;" horiz-adv-x="536"
d="M274 267h-6q-62 0 -114.5 26t-83 73.5t-30.5 107.5q0 226 291 226h115v-793h-50v747h-72v-747h-50v360z" />
    <glyph glyph-name="periodcentered" unicode="&#xb7;" horiz-adv-x="251"
d="M80.5 215.5q-17.5 18.5 -17.5 46.5q0 29 17.5 47.5t44.5 18.5t44.5 -18.5t17.5 -47.5q0 -28 -17.5 -46.5t-44.5 -18.5t-44.5 18.5z" />
    <glyph glyph-name="cedilla" unicode="&#xb8;" horiz-adv-x="400"
d="M145 -223.5q-22 3.5 -34 9.5l10 43q9 -4 25 -6.5t30 -2.5q24 0 39 10t15 31q0 17 -20.5 27.5t-56.5 9.5l-22 23l51 92h57l-39 -75q41 0 65.5 -20t24.5 -54q0 -40 -28 -65.5t-75 -25.5q-20 0 -42 3.5z" />
    <glyph glyph-name="uni00B9" unicode="&#xb9;" horiz-adv-x="400"
d="M84 271h82v333l-94 -55v74l123 75h54v-427h80v-63h-245v63z" />
    <glyph glyph-name="ordmasculine" unicode="&#xba;" horiz-adv-x="390"
d="M76.5 407.5q-43.5 46.5 -43.5 126.5t43.5 126.5t118.5 46.5t118.5 -46.5t43.5 -126.5t-43.5 -126.5t-118.5 -46.5t-118.5 46.5zM266.5 442q24.5 33 24.5 92q0 60 -24.5 92.5t-71.5 32.5t-71.5 -32.5t-24.5 -92.5q0 -59 24.5 -92t71.5 -33t71.5 33z" />
    <glyph glyph-name="guillemotright" unicode="&#xbb;" horiz-adv-x="515"
d="M191 260l-154 196h92l157 -196l-157 -196h-92zM383 260l-155 196h93l157 -196l-157 -196h-93z" />
    <glyph glyph-name="onequarter" unicode="&#xbc;" horiz-adv-x="967"
d="M82 324h73v296l-84 -49v66l109 67h48v-380h71v-56h-217v56zM655 699h71l-405 -722h-71zM769 71h-196v57l185 307h85v-309h46v-55h-46v-71h-74v71zM769 126v228l-135 -228h135z" />
    <glyph glyph-name="onehalf" unicode="&#xbd;" horiz-adv-x="967"
d="M82 324h73v296l-84 -49v66l109 67h48v-380h71v-56h-217v56zM615 699h71l-405 -722h-71zM618 54q72 52 132.5 125t60.5 136q0 31 -18.5 49.5t-51.5 18.5q-29 0 -54.5 -14.5t-41.5 -39.5l-38 41q21 34 59 53t81 19q64 0 101 -33t37 -91q0 -108 -170 -262h187v-56h-284v54z
" />
    <glyph glyph-name="threequarters" unicode="&#xbe;" horiz-adv-x="967"
d="M95.5 279q-37.5 18 -55.5 48l35 41q18 -23 45.5 -35.5t57.5 -12.5q36 0 57.5 20.5t21.5 52.5q0 35 -27 55.5t-74 20.5h-29v54h28q40 0 64 20t24 53q0 26 -18.5 41t-48.5 15q-29 0 -55.5 -13t-44.5 -35l-34 41q21 31 59.5 48.5t83.5 17.5q59 0 94.5 -29.5t35.5 -78.5
q0 -34 -20.5 -62.5t-55.5 -41.5q43 -13 67.5 -42t24.5 -68q0 -58 -41.5 -93t-109.5 -35q-47 0 -84.5 18zM648 699h71l-405 -722h-71zM762 71h-196v57l185 307h85v-309h46v-55h-46v-71h-74v71zM762 126v228l-135 -228h135z" />
    <glyph glyph-name="questiondown" unicode="&#xbf;" horiz-adv-x="454"
d="M181 403.5q-18 17.5 -18 44.5t18 44.5t46 17.5t46 -17.5t18 -44.5t-18 -44.5t-46 -17.5t-46 17.5zM84.5 -163.5q-51.5 47.5 -51.5 129.5q0 45 20.5 81t61.5 86q40 47 60 82.5t20 77.5q0 18 -4 42h78q6 -21 6 -46q0 -43 -20 -80t-59 -87q-37 -47 -55 -80t-18 -70
q0 -112 115 -112q41 0 76.5 22t58.5 61l47 -54q-28 -47 -78 -73.5t-113 -26.5q-93 0 -144.5 47.5z" />
    <glyph glyph-name="Agrave" unicode="&#xc0;" horiz-adv-x="596"
d="M434 151h-272l-47 -151h-98l238 700h86l238 -700h-98zM410 226l-112 359l-112 -359h224zM167 900h87l78 -146h-68z" />
    <glyph glyph-name="Aacute" unicode="&#xc1;" horiz-adv-x="596"
d="M434 151h-272l-47 -151h-98l238 700h86l238 -700h-98zM410 226l-112 359l-112 -359h224zM346 900h87l-97 -146h-68z" />
    <glyph glyph-name="Acircumflex" unicode="&#xc2;" horiz-adv-x="596"
d="M434 151h-272l-47 -151h-98l238 700h86l238 -700h-98zM410 226l-112 359l-112 -359h224zM269 897h58l112 -143h-74l-67 88l-67 -88h-74z" />
    <glyph glyph-name="Atilde" unicode="&#xc3;" horiz-adv-x="596"
d="M434 151h-272l-47 -151h-98l238 700h86l238 -700h-98zM410 226l-112 359l-112 -359h224zM174.5 827q22.5 28 58.5 28q18 0 32.5 -6t41.5 -21q31 -20 47 -20q14 0 21.5 12t9.5 39h52q-1 -48 -24 -76.5t-60 -28.5q-19 0 -36 7.5t-41 21.5q-29 18 -41 18q-13 0 -21.5 -12.5
t-9.5 -34.5h-52q0 45 22.5 73z" />
    <glyph glyph-name="Adieresis" unicode="&#xc4;" horiz-adv-x="596"
d="M434 151h-272l-47 -151h-98l238 700h86l238 -700h-98zM410 226l-112 359l-112 -359h224zM161 768.5q-15 14.5 -15 36.5t14.5 36.5t37.5 14.5q22 0 37 -14.5t15 -36.5t-15 -36.5t-37 -14.5t-37 14.5zM361 768.5q-15 14.5 -15 36.5t15 36.5t37 14.5q23 0 37.5 -14.5
t14.5 -36.5t-15 -36.5t-37 -14.5t-37 14.5z" />
    <glyph glyph-name="Aring" unicode="&#xc5;" horiz-adv-x="596"
d="M434 151h-272l-47 -151h-98l238 700h86l238 -700h-98zM410 226l-112 359l-112 -359h224zM229.5 743q-26.5 25 -26.5 64t26.5 64t68.5 25t68.5 -25t26.5 -64t-26.5 -64t-68.5 -25t-68.5 25zM334 770.5q14 14.5 14 36.5t-14 36.5t-36 14.5t-36 -14.5t-14 -36.5t14 -36.5
t36 -14.5t36 14.5z" />
    <glyph glyph-name="AE" unicode="&#xc6;" horiz-adv-x="800"
d="M466 625v-220h249v-75h-249v-255h283v-75h-375v144h-192l-63 -144h-102l326 700h406v-75h-283zM374 216v365l-160 -365h160z" />
    <glyph glyph-name="Ccedilla" unicode="&#xc7;" horiz-adv-x="585"
d="M437.5 86.5q41.5 20.5 68.5 63.5l52 -51q-25 -46 -74 -74t-115 -34l-28 -53q41 0 66 -18.5t25 -52.5q0 -40 -27.5 -64t-75.5 -24q-20 0 -42 3.5t-34 9.5l8 39q23 -7 56 -7q24 0 39.5 10.5t15.5 30.5q0 18 -20 28t-57 9l-20 22l38 67q-85 5 -148 50.5t-97 124.5t-34 184
q0 110 37.5 191t106.5 125t162 44q74 0 132 -29t86 -80l-52 -51q-55 84 -165 84q-101 0 -157.5 -74.5t-56.5 -209.5q0 -134 55.5 -209t153.5 -75q60 0 101.5 20.5z" />
    <glyph glyph-name="Egrave" unicode="&#xc8;" horiz-adv-x="552"
d="M81 700h420v-76h-328v-218h293v-76h-293v-254h328v-76h-420v700zM164 900h87l78 -146h-68z" />
    <glyph glyph-name="Eacute" unicode="&#xc9;" horiz-adv-x="552"
d="M81 700h420v-76h-328v-218h293v-76h-293v-254h328v-76h-420v700zM343 900h87l-97 -146h-68z" />
    <glyph glyph-name="Ecircumflex" unicode="&#xca;" horiz-adv-x="552"
d="M81 700h420v-76h-328v-218h293v-76h-293v-254h328v-76h-420v700zM266 897h58l112 -143h-74l-67 88l-67 -88h-74z" />
    <glyph glyph-name="Edieresis" unicode="&#xcb;" horiz-adv-x="552"
d="M81 700h420v-76h-328v-218h293v-76h-293v-254h328v-76h-420v700zM158 768.5q-15 14.5 -15 36.5t14.5 36.5t37.5 14.5q22 0 37 -14.5t15 -36.5t-15 -36.5t-37 -14.5t-37 14.5zM358 768.5q-15 14.5 -15 36.5t15 36.5t37 14.5q23 0 37.5 -14.5t14.5 -36.5t-15 -36.5
t-37 -14.5t-37 14.5z" />
    <glyph glyph-name="Igrave" unicode="&#xcc;" horiz-adv-x="292"
d="M100 700h92v-700h-92v700zM16 900h87l78 -146h-68z" />
    <glyph glyph-name="Iacute" unicode="&#xcd;" horiz-adv-x="292"
d="M100 700h92v-700h-92v700zM195 900h87l-97 -146h-68z" />
    <glyph glyph-name="Icircumflex" unicode="&#xce;" horiz-adv-x="292"
d="M100 700h92v-700h-92v700zM118 897h58l112 -143h-74l-67 88l-67 -88h-74z" />
    <glyph glyph-name="Idieresis" unicode="&#xcf;" horiz-adv-x="292"
d="M100 700h92v-700h-92v700zM10 768.5q-15 14.5 -15 36.5t14.5 36.5t37.5 14.5q22 0 37 -14.5t15 -36.5t-15 -36.5t-37 -14.5t-37 14.5zM210 768.5q-15 14.5 -15 36.5t15 36.5t37 14.5q23 0 37.5 -14.5t14.5 -36.5t-15 -36.5t-37 -14.5t-37 14.5z" />
    <glyph glyph-name="Eth" unicode="&#xd0;" horiz-adv-x="625"
d="M511.5 615q69.5 -85 69.5 -251q0 -130 -31 -209.5t-97.5 -117t-175.5 -37.5h-194v302h-75v71h75v327h222q137 0 206.5 -85zM442 145q47 69 47 219q0 133 -46 196.5t-142 63.5h-126v-251h206v-71h-206v-226h118q102 0 149 69z" />
    <glyph glyph-name="Ntilde" unicode="&#xd1;" horiz-adv-x="682"
d="M602 700v-700h-91l-339 554v-554h-92v700h97l333 -547v547h92zM217.5 827q22.5 28 58.5 28q18 0 32.5 -6t41.5 -21q31 -20 47 -20q14 0 21.5 12t9.5 39h52q-1 -48 -24 -76.5t-60 -28.5q-19 0 -36 7.5t-41 21.5q-29 18 -41 18q-13 0 -21.5 -12.5t-9.5 -34.5h-52
q0 45 22.5 73z" />
    <glyph glyph-name="Ograve" unicode="&#xd2;" horiz-adv-x="661"
d="M173 33.5q-67 43.5 -103 125t-36 191.5t36 191.5t103 125t158 43.5t157.5 -43.5t102.5 -125t36 -191.5t-36 -191.5t-102.5 -125t-157.5 -43.5t-158 43.5zM439.5 99q46.5 35 71 99.5t24.5 151.5t-24.5 151.5t-71 99.5t-108.5 35q-63 0 -109 -35t-71 -99.5t-25 -151.5
t25 -151.5t71 -99.5t109 -35q62 0 108.5 35zM200 900h87l78 -146h-68z" />
    <glyph glyph-name="Oacute" unicode="&#xd3;" horiz-adv-x="661"
d="M173 33.5q-67 43.5 -103 125t-36 191.5t36 191.5t103 125t158 43.5t157.5 -43.5t102.5 -125t36 -191.5t-36 -191.5t-102.5 -125t-157.5 -43.5t-158 43.5zM439.5 99q46.5 35 71 99.5t24.5 151.5t-24.5 151.5t-71 99.5t-108.5 35q-63 0 -109 -35t-71 -99.5t-25 -151.5
t25 -151.5t71 -99.5t109 -35q62 0 108.5 35zM379 900h87l-97 -146h-68z" />
    <glyph glyph-name="Ocircumflex" unicode="&#xd4;" horiz-adv-x="661"
d="M173 33.5q-67 43.5 -103 125t-36 191.5t36 191.5t103 125t158 43.5t157.5 -43.5t102.5 -125t36 -191.5t-36 -191.5t-102.5 -125t-157.5 -43.5t-158 43.5zM439.5 99q46.5 35 71 99.5t24.5 151.5t-24.5 151.5t-71 99.5t-108.5 35q-63 0 -109 -35t-71 -99.5t-25 -151.5
t25 -151.5t71 -99.5t109 -35q62 0 108.5 35zM302 897h58l112 -143h-74l-67 88l-67 -88h-74z" />
    <glyph glyph-name="Otilde" unicode="&#xd5;" horiz-adv-x="661"
d="M173 33.5q-67 43.5 -103 125t-36 191.5t36 191.5t103 125t158 43.5t157.5 -43.5t102.5 -125t36 -191.5t-36 -191.5t-102.5 -125t-157.5 -43.5t-158 43.5zM439.5 99q46.5 35 71 99.5t24.5 151.5t-24.5 151.5t-71 99.5t-108.5 35q-63 0 -109 -35t-71 -99.5t-25 -151.5
t25 -151.5t71 -99.5t109 -35q62 0 108.5 35zM207.5 827q22.5 28 58.5 28q18 0 32.5 -6t41.5 -21q31 -20 47 -20q14 0 21.5 12t9.5 39h52q-1 -48 -24 -76.5t-60 -28.5q-19 0 -36 7.5t-41 21.5q-29 18 -41 18q-13 0 -21.5 -12.5t-9.5 -34.5h-52q0 45 22.5 73z" />
    <glyph glyph-name="Odieresis" unicode="&#xd6;" horiz-adv-x="661"
d="M173 33.5q-67 43.5 -103 125t-36 191.5t36 191.5t103 125t158 43.5t157.5 -43.5t102.5 -125t36 -191.5t-36 -191.5t-102.5 -125t-157.5 -43.5t-158 43.5zM439.5 99q46.5 35 71 99.5t24.5 151.5t-24.5 151.5t-71 99.5t-108.5 35q-63 0 -109 -35t-71 -99.5t-25 -151.5
t25 -151.5t71 -99.5t109 -35q62 0 108.5 35zM194 768.5q-15 14.5 -15 36.5t14.5 36.5t37.5 14.5q22 0 37 -14.5t15 -36.5t-15 -36.5t-37 -14.5t-37 14.5zM394 768.5q-15 14.5 -15 36.5t15 36.5t37 14.5q23 0 37.5 -14.5t14.5 -36.5t-15 -36.5t-37 -14.5t-37 14.5z" />
    <glyph glyph-name="multiply" unicode="&#xd7;" horiz-adv-x="607"
d="M302 205l-185 -195l-55 50l187 199l-187 197l55 50l185 -194l187 194l55 -50l-187 -197l187 -199l-55 -50z" />
    <glyph glyph-name="Oslash" unicode="&#xd8;" horiz-adv-x="661"
d="M600 519.5q27 -74.5 27 -169.5q0 -110 -36 -191.5t-102.5 -125t-157.5 -43.5q-77 0 -138 32l-35 -65h-73l54 103q-51 47 -78 121t-27 169q0 110 36 191.5t103 125t158 43.5q75 0 135 -31l24 46h77l-45 -85q51 -46 78 -120.5zM182 140l247 469q-42 27 -98 27
q-63 0 -109 -35t-71 -99.5t-25 -151.5q0 -132 56 -210zM439.5 99q46.5 35 71 99.5t24.5 151.5q0 134 -56 210l-249 -467q44 -29 101 -29q62 0 108.5 35z" />
    <glyph glyph-name="Ugrave" unicode="&#xd9;" horiz-adv-x="657"
d="M140.5 61.5q-63.5 71.5 -63.5 212.5v426h93v-424q0 -210 159 -210t159 210v424h92v-426q0 -140 -63.5 -212t-187.5 -72q-125 0 -188.5 71.5zM198 900h87l78 -146h-68z" />
    <glyph glyph-name="Uacute" unicode="&#xda;" horiz-adv-x="657"
d="M140.5 61.5q-63.5 71.5 -63.5 212.5v426h93v-424q0 -210 159 -210t159 210v424h92v-426q0 -140 -63.5 -212t-187.5 -72q-125 0 -188.5 71.5zM377 900h87l-97 -146h-68z" />
    <glyph glyph-name="Ucircumflex" unicode="&#xdb;" horiz-adv-x="657"
d="M140.5 61.5q-63.5 71.5 -63.5 212.5v426h93v-424q0 -210 159 -210t159 210v424h92v-426q0 -140 -63.5 -212t-187.5 -72q-125 0 -188.5 71.5zM300 897h58l112 -143h-74l-67 88l-67 -88h-74z" />
    <glyph glyph-name="Udieresis" unicode="&#xdc;" horiz-adv-x="657"
d="M140.5 61.5q-63.5 71.5 -63.5 212.5v426h93v-424q0 -210 159 -210t159 210v424h92v-426q0 -140 -63.5 -212t-187.5 -72q-125 0 -188.5 71.5zM192 768.5q-15 14.5 -15 36.5t14.5 36.5t37.5 14.5q22 0 37 -14.5t15 -36.5t-15 -36.5t-37 -14.5t-37 14.5zM392 768.5
q-15 14.5 -15 36.5t15 36.5t37 14.5q23 0 37.5 -14.5t14.5 -36.5t-15 -36.5t-37 -14.5t-37 14.5z" />
    <glyph glyph-name="Yacute" unicode="&#xdd;" horiz-adv-x="573"
d="M240 278l-223 422h102l167 -334l167 334h102l-222 -422v-278h-93v278zM334 900h87l-97 -146h-68z" />
    <glyph glyph-name="Thorn" unicode="&#xde;" horiz-adv-x="567"
d="M81 700h92v-97h108q115 0 175 -53.5t60 -156.5q0 -108 -62 -166t-178 -58h-103v-169h-92v700zM288 245q67 0 103.5 37.5t36.5 106.5q0 68 -38 103.5t-110 35.5h-107v-283h115z" />
    <glyph glyph-name="germandbls" unicode="&#xdf;" horiz-adv-x="565"
d="M261.5 11.5q-43.5 21.5 -64.5 62.5l55 38q18 -28 44.5 -42.5t57.5 -14.5q41 0 67 23.5t26 62.5q0 38 -23 57.5t-73 38.5q-54 21 -77.5 50t-23.5 71q0 35 16.5 56.5t49.5 47.5q31 24 45.5 43t14.5 48q0 44 -27 67t-78 23q-66 0 -96.5 -40t-30.5 -122v-481h-84v486
q0 110 53 167t154 57q93 0 142 -40.5t49 -117.5q0 -40 -20.5 -66.5t-57.5 -56.5q-26 -21 -38 -35t-12 -31q0 -27 24.5 -44.5t60.5 -30.5q116 -44 116 -144q0 -70 -47.5 -112t-124.5 -42q-54 0 -97.5 21.5z" />
    <glyph glyph-name="agrave" unicode="&#xe0;" horiz-adv-x="514"
d="M87 33q-47 43 -47 111q0 75 56.5 116t160.5 41h103v26q0 56 -29.5 85.5t-85.5 29.5q-45 0 -82.5 -18.5t-62.5 -53.5l-43 52q34 43 83 65.5t109 22.5q94 0 145 -46t51 -132v-235q0 -39 12 -97h-74q-9 23 -13 70h-2q-28 -39 -69 -59.5t-91 -20.5q-74 0 -121 43zM291 71.5
q32 14.5 50.5 39.5t18.5 55v74h-106q-63 0 -97 -25t-34 -71q0 -40 26.5 -63.5t71.5 -23.5q38 0 70 14.5zM123 700h87l78 -146h-68z" />
    <glyph glyph-name="aacute" unicode="&#xe1;" horiz-adv-x="514"
d="M87 33q-47 43 -47 111q0 75 56.5 116t160.5 41h103v26q0 56 -29.5 85.5t-85.5 29.5q-45 0 -82.5 -18.5t-62.5 -53.5l-43 52q34 43 83 65.5t109 22.5q94 0 145 -46t51 -132v-235q0 -39 12 -97h-74q-9 23 -13 70h-2q-28 -39 -69 -59.5t-91 -20.5q-74 0 -121 43zM291 71.5
q32 14.5 50.5 39.5t18.5 55v74h-106q-63 0 -97 -25t-34 -71q0 -40 26.5 -63.5t71.5 -23.5q38 0 70 14.5zM302 700h87l-97 -146h-68z" />
    <glyph glyph-name="acircumflex" unicode="&#xe2;" horiz-adv-x="514"
d="M87 33q-47 43 -47 111q0 75 56.5 116t160.5 41h103v26q0 56 -29.5 85.5t-85.5 29.5q-45 0 -82.5 -18.5t-62.5 -53.5l-43 52q34 43 83 65.5t109 22.5q94 0 145 -46t51 -132v-235q0 -39 12 -97h-74q-9 23 -13 70h-2q-28 -39 -69 -59.5t-91 -20.5q-74 0 -121 43zM291 71.5
q32 14.5 50.5 39.5t18.5 55v74h-106q-63 0 -97 -25t-34 -71q0 -40 26.5 -63.5t71.5 -23.5q38 0 70 14.5zM225 697h58l112 -143h-74l-67 88l-67 -88h-74z" />
    <glyph glyph-name="atilde" unicode="&#xe3;" horiz-adv-x="514"
d="M87 33q-47 43 -47 111q0 75 56.5 116t160.5 41h103v26q0 56 -29.5 85.5t-85.5 29.5q-45 0 -82.5 -18.5t-62.5 -53.5l-43 52q34 43 83 65.5t109 22.5q94 0 145 -46t51 -132v-235q0 -39 12 -97h-74q-9 23 -13 70h-2q-28 -39 -69 -59.5t-91 -20.5q-74 0 -121 43zM291 71.5
q32 14.5 50.5 39.5t18.5 55v74h-106q-63 0 -97 -25t-34 -71q0 -40 26.5 -63.5t71.5 -23.5q38 0 70 14.5zM130.5 627q22.5 28 58.5 28q18 0 32.5 -6t41.5 -21q31 -20 47 -20q14 0 21.5 12t9.5 39h52q-1 -48 -24 -76.5t-60 -28.5q-19 0 -36 7.5t-41 21.5q-29 18 -41 18
q-13 0 -21.5 -12.5t-9.5 -34.5h-52q0 45 22.5 73z" />
    <glyph glyph-name="adieresis" unicode="&#xe4;" horiz-adv-x="514"
d="M87 33q-47 43 -47 111q0 75 56.5 116t160.5 41h103v26q0 56 -29.5 85.5t-85.5 29.5q-45 0 -82.5 -18.5t-62.5 -53.5l-43 52q34 43 83 65.5t109 22.5q94 0 145 -46t51 -132v-235q0 -39 12 -97h-74q-9 23 -13 70h-2q-28 -39 -69 -59.5t-91 -20.5q-74 0 -121 43zM291 71.5
q32 14.5 50.5 39.5t18.5 55v74h-106q-63 0 -97 -25t-34 -71q0 -40 26.5 -63.5t71.5 -23.5q38 0 70 14.5zM117 568.5q-15 14.5 -15 36.5t14.5 36.5t37.5 14.5q22 0 37 -14.5t15 -36.5t-15 -36.5t-37 -14.5t-37 14.5zM317 568.5q-15 14.5 -15 36.5t15 36.5t37 14.5
q23 0 37.5 -14.5t14.5 -36.5t-15 -36.5t-37 -14.5t-37 14.5z" />
    <glyph glyph-name="aring" unicode="&#xe5;" horiz-adv-x="514"
d="M87 33q-47 43 -47 111q0 75 56.5 116t160.5 41h103v26q0 56 -29.5 85.5t-85.5 29.5q-45 0 -82.5 -18.5t-62.5 -53.5l-43 52q34 43 83 65.5t109 22.5q94 0 145 -46t51 -132v-235q0 -39 12 -97h-74q-9 23 -13 70h-2q-28 -39 -69 -59.5t-91 -20.5q-74 0 -121 43zM291 71.5
q32 14.5 50.5 39.5t18.5 55v74h-106q-63 0 -97 -25t-34 -71q0 -40 26.5 -63.5t71.5 -23.5q38 0 70 14.5zM185.5 563q-26.5 25 -26.5 64t26.5 64t68.5 25t68.5 -25t26.5 -64t-26.5 -64t-68.5 -25t-68.5 25zM290 590.5q14 14.5 14 36.5t-14 36.5t-36 14.5t-36 -14.5t-14 -36.5
t14 -36.5t36 -14.5t36 14.5z" />
    <glyph glyph-name="ae" unicode="&#xe6;" horiz-adv-x="830"
d="M794 233h-356q4 -83 42.5 -127t106.5 -44q87 0 140 71l48 -46q-29 -46 -79 -71.5t-112 -25.5q-122 0 -183 86q-31 -39 -80.5 -62.5t-105.5 -23.5q-78 0 -126.5 41.5t-48.5 108.5q0 73 53 113.5t149 40.5h112v33q0 56 -28.5 85.5t-83.5 29.5q-45 0 -82 -18.5t-61 -53.5
l-42 52q33 43 81.5 65.5t107.5 22.5q57 0 99.5 -19.5t65.5 -55.5q62 75 171 75q102 0 157 -63.5t55 -181.5v-32zM711 299q0 70 -34 106t-99 36q-58 0 -93.5 -38t-44.5 -109h271v5zM354 233h-104q-60 0 -94 -24.5t-34 -68.5q0 -37 26.5 -60t70.5 -23q37 0 68 14.5t49 39.5
t18 55v67z" />
    <glyph glyph-name="ccedilla" unicode="&#xe7;" horiz-adv-x="473"
d="M347.5 77.5q35.5 19.5 57.5 53.5l51 -46q-51 -83 -160 -94l-28 -53q41 0 66 -18.5t25 -52.5q0 -40 -27.5 -64t-75.5 -24q-20 0 -42 3.5t-34 9.5l8 39q23 -7 56 -7q24 0 39.5 10.5t15.5 30.5q0 18 -20 28t-57 9l-20 22l38 67q-98 9 -152 76.5t-54 182.5q0 123 61.5 191.5
t172.5 68.5q63 0 111.5 -24.5t76.5 -70.5l-51 -46q-22 34 -57.5 53.5t-76.5 19.5q-71 0 -111.5 -50.5t-40.5 -141.5q0 -90 40.5 -141t111.5 -51q41 0 76.5 19.5z" />
    <glyph glyph-name="egrave" unicode="&#xe8;" horiz-adv-x="518"
d="M482 217h-360q7 -76 45 -115.5t105 -39.5q90 0 143 71l48 -46q-29 -46 -80.5 -71.5t-113.5 -25.5q-111 0 -172 68t-61 191q0 122 61.5 191.5t169.5 69.5q101 0 158 -68.5t57 -191.5v-33zM404 287q0 72 -37.5 113t-103.5 41q-62 0 -98.5 -42t-42.5 -119h282v7zM135 700h87
l78 -146h-68z" />
    <glyph glyph-name="eacute" unicode="&#xe9;" horiz-adv-x="518"
d="M482 217h-360q7 -76 45 -115.5t105 -39.5q90 0 143 71l48 -46q-29 -46 -80.5 -71.5t-113.5 -25.5q-111 0 -172 68t-61 191q0 122 61.5 191.5t169.5 69.5q101 0 158 -68.5t57 -191.5v-33zM404 287q0 72 -37.5 113t-103.5 41q-62 0 -98.5 -42t-42.5 -119h282v7zM314 700h87
l-97 -146h-68z" />
    <glyph glyph-name="ecircumflex" unicode="&#xea;" horiz-adv-x="518"
d="M482 217h-360q7 -76 45 -115.5t105 -39.5q90 0 143 71l48 -46q-29 -46 -80.5 -71.5t-113.5 -25.5q-111 0 -172 68t-61 191q0 122 61.5 191.5t169.5 69.5q101 0 158 -68.5t57 -191.5v-33zM404 287q0 72 -37.5 113t-103.5 41q-62 0 -98.5 -42t-42.5 -119h282v7zM237 697h58
l112 -143h-74l-67 88l-67 -88h-74z" />
    <glyph glyph-name="edieresis" unicode="&#xeb;" horiz-adv-x="518"
d="M482 217h-360q7 -76 45 -115.5t105 -39.5q90 0 143 71l48 -46q-29 -46 -80.5 -71.5t-113.5 -25.5q-111 0 -172 68t-61 191q0 122 61.5 191.5t169.5 69.5q101 0 158 -68.5t57 -191.5v-33zM404 287q0 72 -37.5 113t-103.5 41q-62 0 -98.5 -42t-42.5 -119h282v7zM129 568.5
q-15 14.5 -15 36.5t14.5 36.5t37.5 14.5q22 0 37 -14.5t15 -36.5t-15 -36.5t-37 -14.5t-37 14.5zM329 568.5q-15 14.5 -15 36.5t15 36.5t37 14.5q23 0 37.5 -14.5t14.5 -36.5t-15 -36.5t-37 -14.5t-37 14.5z" />
    <glyph glyph-name="igrave" unicode="&#xec;" horiz-adv-x="253"
d="M84 500h85v-500h-85v500zM-5 700h87l78 -146h-68z" />
    <glyph glyph-name="iacute" unicode="&#xed;" horiz-adv-x="253"
d="M84 500h85v-500h-85v500zM174 700h87l-97 -146h-68z" />
    <glyph glyph-name="icircumflex" unicode="&#xee;" horiz-adv-x="253"
d="M84 500h85v-500h-85v500zM97 697h58l112 -143h-74l-67 88l-67 -88h-74z" />
    <glyph glyph-name="idieresis" unicode="&#xef;" horiz-adv-x="253"
d="M84 500h85v-500h-85v500zM-11 568.5q-15 14.5 -15 36.5t14.5 36.5t37.5 14.5q22 0 37 -14.5t15 -36.5t-15 -36.5t-37 -14.5t-37 14.5zM189 568.5q-15 14.5 -15 36.5t15 36.5t37 14.5q23 0 37.5 -14.5t14.5 -36.5t-15 -36.5t-37 -14.5t-37 14.5z" />
    <glyph glyph-name="eth" unicode="&#xf0;" horiz-adv-x="498"
d="M422 440.5q40 -88.5 40 -187.5q0 -80 -27 -139.5t-76.5 -91.5t-115.5 -32q-61 0 -108 28t-73 78.5t-26 115.5q0 66 26.5 118.5t73 82.5t104.5 30q35 0 66.5 -14t50.5 -37q-28 93 -105 163l-128 -83l-34 50l111 72q-57 39 -128 56l7 52q97 -15 179 -70l117 76l33 -52
l-98 -64q71 -63 111 -151.5zM344 102.5q36 42.5 36 113.5q0 73 -35.5 116t-96.5 43q-59 0 -93.5 -43t-34.5 -116q0 -71 35 -113.5t93 -42.5q60 0 96 42.5z" />
    <glyph glyph-name="ntilde" unicode="&#xf1;" horiz-adv-x="549"
d="M60 374q0 95 -4 126h79q4 -33 4 -89h3q22 46 67.5 72.5t101.5 26.5q88 0 132 -57t44 -170v-283h-85v284q0 80 -27 119t-82 39q-42 0 -76 -21.5t-53 -60t-19 -86.5v-274h-85v374zM150.5 627q22.5 28 58.5 28q18 0 32.5 -6t41.5 -21q31 -20 47 -20q14 0 21.5 12t9.5 39h52
q-1 -48 -24 -76.5t-60 -28.5q-19 0 -36 7.5t-41 21.5q-29 18 -41 18q-13 0 -21.5 -12.5t-9.5 -34.5h-52q0 45 22.5 73z" />
    <glyph glyph-name="ograve" unicode="&#xf2;" horiz-adv-x="557"
d="M149.5 21.5q-54.5 31.5 -84 90.5t-29.5 138t29.5 138t84 90.5t128.5 31.5q112 0 177.5 -70t65.5 -190t-65.5 -190t-177.5 -70q-74 0 -128.5 31.5zM394 107q42 52 42 143t-42 143t-116 52q-73 0 -115 -52t-42 -143t42 -143t115 -52q74 0 116 52zM147 700h87l78 -146h-68z
" />
    <glyph glyph-name="oacute" unicode="&#xf3;" horiz-adv-x="557"
d="M149.5 21.5q-54.5 31.5 -84 90.5t-29.5 138t29.5 138t84 90.5t128.5 31.5q112 0 177.5 -70t65.5 -190t-65.5 -190t-177.5 -70q-74 0 -128.5 31.5zM394 107q42 52 42 143t-42 143t-116 52q-73 0 -115 -52t-42 -143t42 -143t115 -52q74 0 116 52zM326 700h87l-97 -146h-68z
" />
    <glyph glyph-name="ocircumflex" unicode="&#xf4;" horiz-adv-x="557"
d="M149.5 21.5q-54.5 31.5 -84 90.5t-29.5 138t29.5 138t84 90.5t128.5 31.5q112 0 177.5 -70t65.5 -190t-65.5 -190t-177.5 -70q-74 0 -128.5 31.5zM394 107q42 52 42 143t-42 143t-116 52q-73 0 -115 -52t-42 -143t42 -143t115 -52q74 0 116 52zM249 697h58l112 -143h-74
l-67 88l-67 -88h-74z" />
    <glyph glyph-name="otilde" unicode="&#xf5;" horiz-adv-x="557"
d="M149.5 21.5q-54.5 31.5 -84 90.5t-29.5 138t29.5 138t84 90.5t128.5 31.5q112 0 177.5 -70t65.5 -190t-65.5 -190t-177.5 -70q-74 0 -128.5 31.5zM394 107q42 52 42 143t-42 143t-116 52q-73 0 -115 -52t-42 -143t42 -143t115 -52q74 0 116 52zM154.5 627
q22.5 28 58.5 28q18 0 32.5 -6t41.5 -21q31 -20 47 -20q14 0 21.5 12t9.5 39h52q-1 -48 -24 -76.5t-60 -28.5q-19 0 -36 7.5t-41 21.5q-29 18 -41 18q-13 0 -21.5 -12.5t-9.5 -34.5h-52q0 45 22.5 73z" />
    <glyph glyph-name="odieresis" unicode="&#xf6;" horiz-adv-x="557"
d="M149.5 21.5q-54.5 31.5 -84 90.5t-29.5 138t29.5 138t84 90.5t128.5 31.5q112 0 177.5 -70t65.5 -190t-65.5 -190t-177.5 -70q-74 0 -128.5 31.5zM394 107q42 52 42 143t-42 143t-116 52q-73 0 -115 -52t-42 -143t42 -143t115 -52q74 0 116 52zM141 568.5
q-15 14.5 -15 36.5t14.5 36.5t37.5 14.5q22 0 37 -14.5t15 -36.5t-15 -36.5t-37 -14.5t-37 14.5zM341 568.5q-15 14.5 -15 36.5t15 36.5t37 14.5q23 0 37.5 -14.5t14.5 -36.5t-15 -36.5t-37 -14.5t-37 14.5z" />
    <glyph glyph-name="divide" unicode="&#xf7;" horiz-adv-x="607"
d="M261 402.5q-17 16.5 -17 41.5t17 41.5t43 16.5t43 -16.5t17 -41.5t-17 -41.5t-43 -16.5t-43 16.5zM51 296h505v-68h-505v68zM261 38.5q-17 16.5 -17 42.5q0 25 17 41t43 16t43 -16t17 -41q0 -26 -17 -42.5t-43 -16.5t-43 16.5z" />
    <glyph glyph-name="oslash" unicode="&#xf8;" horiz-adv-x="557"
d="M497 376.5q24 -54.5 24 -126.5q0 -120 -65.5 -190t-177.5 -70q-53 0 -94 16l-26 -49h-64l39 75q-47 33 -72 88.5t-25 129.5q0 79 29.5 138t84 90.5t128.5 31.5q53 0 98 -17l22 42h68l-38 -71q45 -33 69 -87.5zM169 100l175 332q-32 13 -66 13q-73 0 -115 -52t-42 -143
q0 -99 48 -150zM394 107q42 52 42 143q0 93 -44 145l-176 -328q29 -12 62 -12q74 0 116 52z" />
    <glyph glyph-name="ugrave" unicode="&#xf9;" horiz-adv-x="552"
d="M105.5 46q-44.5 56 -44.5 165v289h85v-290q0 -152 108 -152q42 0 76 21.5t53 60t19 86.5v274h85v-394q0 -50 9 -106h-78q-9 44 -10 89h-3q-22 -46 -67.5 -72.5t-101.5 -26.5q-86 0 -130.5 56zM148 700h87l78 -146h-68z" />
    <glyph glyph-name="uacute" unicode="&#xfa;" horiz-adv-x="552"
d="M105.5 46q-44.5 56 -44.5 165v289h85v-290q0 -152 108 -152q42 0 76 21.5t53 60t19 86.5v274h85v-394q0 -50 9 -106h-78q-9 44 -10 89h-3q-22 -46 -67.5 -72.5t-101.5 -26.5q-86 0 -130.5 56zM327 700h87l-97 -146h-68z" />
    <glyph glyph-name="ucircumflex" unicode="&#xfb;" horiz-adv-x="552"
d="M105.5 46q-44.5 56 -44.5 165v289h85v-290q0 -152 108 -152q42 0 76 21.5t53 60t19 86.5v274h85v-394q0 -50 9 -106h-78q-9 44 -10 89h-3q-22 -46 -67.5 -72.5t-101.5 -26.5q-86 0 -130.5 56zM250 697h58l112 -143h-74l-67 88l-67 -88h-74z" />
    <glyph glyph-name="udieresis" unicode="&#xfc;" horiz-adv-x="552"
d="M105.5 46q-44.5 56 -44.5 165v289h85v-290q0 -152 108 -152q42 0 76 21.5t53 60t19 86.5v274h85v-394q0 -50 9 -106h-78q-9 44 -10 89h-3q-22 -46 -67.5 -72.5t-101.5 -26.5q-86 0 -130.5 56zM142 568.5q-15 14.5 -15 36.5t14.5 36.5t37.5 14.5q22 0 37 -14.5t15 -36.5
t-15 -36.5t-37 -14.5t-37 14.5zM342 568.5q-15 14.5 -15 36.5t15 36.5t37 14.5q23 0 37.5 -14.5t14.5 -36.5t-15 -36.5t-37 -14.5t-37 14.5z" />
    <glyph glyph-name="yacute" unicode="&#xfd;" horiz-adv-x="462"
d="M451 500l-181 -509q-69 -193 -213 -193q-26 0 -56 7v65q18 -6 44 -6q51 0 87 37t69 125l-186 474h91l134 -383l119 383h92zM284 700h87l-97 -146h-68z" />
    <glyph glyph-name="thorn" unicode="&#xfe;" horiz-adv-x="534"
d="M59 742h84v-303q19 33 59 52t89 19q97 0 152 -68t55 -189q0 -79 -26.5 -138.5t-74.5 -92t-112 -32.5q-48 0 -85.5 18t-56.5 50v-292h-84v976zM376.5 109q37.5 54 37.5 145q0 89 -36 139t-100 50q-60 0 -97.5 -40.5t-37.5 -104.5v-81q0 -75 35.5 -118.5t97.5 -43.5
q63 0 100.5 54z" />
    <glyph glyph-name="ydieresis" unicode="&#xff;" horiz-adv-x="462"
d="M451 500l-181 -509q-69 -193 -213 -193q-26 0 -56 7v65q18 -6 44 -6q51 0 87 37t69 125l-186 474h91l134 -383l119 383h92zM99 568.5q-15 14.5 -15 36.5t14.5 36.5t37.5 14.5q22 0 37 -14.5t15 -36.5t-15 -36.5t-37 -14.5t-37 14.5zM299 568.5q-15 14.5 -15 36.5t15 36.5
t37 14.5q23 0 37.5 -14.5t14.5 -36.5t-15 -36.5t-37 -14.5t-37 14.5z" />
    <glyph glyph-name="Amacron" unicode="&#x100;" horiz-adv-x="596"
d="M434 151h-272l-47 -151h-98l238 700h86l238 -700h-98zM410 226l-112 359l-112 -359h224zM142 823h312v-59h-312v59z" />
    <glyph glyph-name="amacron" unicode="&#x101;" horiz-adv-x="514"
d="M87 33q-47 43 -47 111q0 75 56.5 116t160.5 41h103v26q0 56 -29.5 85.5t-85.5 29.5q-45 0 -82.5 -18.5t-62.5 -53.5l-43 52q34 43 83 65.5t109 22.5q94 0 145 -46t51 -132v-235q0 -39 12 -97h-74q-9 23 -13 70h-2q-28 -39 -69 -59.5t-91 -20.5q-74 0 -121 43zM291 71.5
q32 14.5 50.5 39.5t18.5 55v74h-106q-63 0 -97 -25t-34 -71q0 -40 26.5 -63.5t71.5 -23.5q38 0 70 14.5zM98 623h312v-59h-312v59z" />
    <glyph glyph-name="Abreve" unicode="&#x102;" horiz-adv-x="596"
d="M434 151h-272l-47 -151h-98l238 700h86l238 -700h-98zM410 226l-112 359l-112 -359h224zM194.5 787.5q-38.5 33.5 -41.5 99.5h54q2 -35 25 -55.5t66 -20.5q40 0 64 19t27 57h54q-2 -62 -38.5 -97.5t-106.5 -35.5q-65 0 -103.5 33.5z" />
    <glyph glyph-name="abreve" unicode="&#x103;" horiz-adv-x="514"
d="M87 33q-47 43 -47 111q0 75 56.5 116t160.5 41h103v26q0 56 -29.5 85.5t-85.5 29.5q-45 0 -82.5 -18.5t-62.5 -53.5l-43 52q34 43 83 65.5t109 22.5q94 0 145 -46t51 -132v-235q0 -39 12 -97h-74q-9 23 -13 70h-2q-28 -39 -69 -59.5t-91 -20.5q-74 0 -121 43zM291 71.5
q32 14.5 50.5 39.5t18.5 55v74h-106q-63 0 -97 -25t-34 -71q0 -40 26.5 -63.5t71.5 -23.5q38 0 70 14.5zM150.5 587.5q-38.5 33.5 -41.5 99.5h54q2 -35 25 -55.5t66 -20.5q40 0 64 19t27 57h54q-2 -62 -38.5 -97.5t-106.5 -35.5q-65 0 -103.5 33.5z" />
    <glyph glyph-name="Aogonek" unicode="&#x104;" horiz-adv-x="596"
d="M596 -181q-17 -14 -40.5 -22t-49.5 -8q-45 0 -71.5 22.5t-26.5 67.5q0 74 85 121h-12l-47 151h-272l-47 -151h-98l238 700h86l238 -700h-28q-81 -56 -81 -109q0 -22 15.5 -35t47.5 -13q22 0 52 12zM410 226l-112 359l-112 -359h224z" />
    <glyph glyph-name="aogonek" unicode="&#x105;" horiz-adv-x="514"
d="M491 -181q-17 -14 -40.5 -22t-49.5 -8q-45 0 -71.5 22.5t-26.5 67.5q0 74 85 121h-5q-9 23 -13 70h-2q-28 -39 -69 -59.5t-91 -20.5q-74 0 -121 43t-47 111q0 75 56.5 116t160.5 41h103v26q0 56 -29.5 85.5t-85.5 29.5q-45 0 -82.5 -18.5t-62.5 -53.5l-43 52
q34 43 83 65.5t109 22.5q94 0 145 -46t51 -132v-235q0 -39 12 -97h-11q-81 -56 -81 -109q0 -22 15.5 -35t47.5 -13q22 0 52 12zM360 240h-106q-63 0 -97 -25t-34 -71q0 -40 26.5 -63.5t71.5 -23.5q38 0 70 14.5t50.5 39.5t18.5 55v74z" />
    <glyph glyph-name="Cacute" unicode="&#x106;" horiz-adv-x="585"
d="M176 34q-68 44 -105 125t-37 191t37.5 191t106.5 125t162 44q74 0 132 -29t86 -80l-52 -51q-55 84 -165 84q-101 0 -157.5 -74.5t-56.5 -209.5q0 -134 55.5 -209t153.5 -75q60 0 101.5 20.5t68.5 63.5l52 -51q-29 -52 -87 -80.5t-135 -28.5q-92 0 -160 44zM384 900h87
l-97 -146h-68z" />
    <glyph glyph-name="cacute" unicode="&#x107;" horiz-adv-x="473"
d="M95.5 58.5q-61.5 68.5 -61.5 191.5t61.5 191.5t172.5 68.5q63 0 111.5 -24.5t76.5 -70.5l-51 -46q-22 34 -57.5 53.5t-76.5 19.5q-71 0 -111.5 -50.5t-40.5 -141.5q0 -90 40.5 -141t111.5 -51q41 0 76.5 19.5t57.5 53.5l51 -46q-28 -46 -76.5 -70.5t-111.5 -24.5
q-111 0 -172.5 68.5zM319 700h87l-97 -146h-68z" />
    <glyph glyph-name="Ccircumflex" unicode="&#x108;" horiz-adv-x="585"
d="M176 34q-68 44 -105 125t-37 191t37.5 191t106.5 125t162 44q74 0 132 -29t86 -80l-52 -51q-55 84 -165 84q-101 0 -157.5 -74.5t-56.5 -209.5q0 -134 55.5 -209t153.5 -75q60 0 101.5 20.5t68.5 63.5l52 -51q-29 -52 -87 -80.5t-135 -28.5q-92 0 -160 44zM307 897h58
l112 -143h-74l-67 88l-67 -88h-74z" />
    <glyph glyph-name="ccircumflex" unicode="&#x109;" horiz-adv-x="473"
d="M95.5 58.5q-61.5 68.5 -61.5 191.5t61.5 191.5t172.5 68.5q63 0 111.5 -24.5t76.5 -70.5l-51 -46q-22 34 -57.5 53.5t-76.5 19.5q-71 0 -111.5 -50.5t-40.5 -141.5q0 -90 40.5 -141t111.5 -51q41 0 76.5 19.5t57.5 53.5l51 -46q-28 -46 -76.5 -70.5t-111.5 -24.5
q-111 0 -172.5 68.5zM242 697h58l112 -143h-74l-67 88l-67 -88h-74z" />
    <glyph glyph-name="Cdotaccent" unicode="&#x10a;" horiz-adv-x="585"
d="M176 34q-68 44 -105 125t-37 191t37.5 191t106.5 125t162 44q74 0 132 -29t86 -80l-52 -51q-55 84 -165 84q-101 0 -157.5 -74.5t-56.5 -209.5q0 -134 55.5 -209t153.5 -75q60 0 101.5 20.5t68.5 63.5l52 -51q-29 -52 -87 -80.5t-135 -28.5q-92 0 -160 44zM299 768.5
q-15 14.5 -15 36.5t14.5 36.5t37.5 14.5t37.5 -14.5t14.5 -36.5t-15 -36.5t-37 -14.5t-37 14.5z" />
    <glyph glyph-name="cdotaccent" unicode="&#x10b;" horiz-adv-x="473"
d="M95.5 58.5q-61.5 68.5 -61.5 191.5t61.5 191.5t172.5 68.5q63 0 111.5 -24.5t76.5 -70.5l-51 -46q-22 34 -57.5 53.5t-76.5 19.5q-71 0 -111.5 -50.5t-40.5 -141.5q0 -90 40.5 -141t111.5 -51q41 0 76.5 19.5t57.5 53.5l51 -46q-28 -46 -76.5 -70.5t-111.5 -24.5
q-111 0 -172.5 68.5zM234 568.5q-15 14.5 -15 36.5t14.5 36.5t37.5 14.5t37.5 -14.5t14.5 -36.5t-15 -36.5t-37 -14.5t-37 14.5z" />
    <glyph glyph-name="Ccaron" unicode="&#x10c;" horiz-adv-x="585"
d="M176 34q-68 44 -105 125t-37 191t37.5 191t106.5 125t162 44q74 0 132 -29t86 -80l-52 -51q-55 84 -165 84q-101 0 -157.5 -74.5t-56.5 -209.5q0 -134 55.5 -209t153.5 -75q60 0 101.5 20.5t68.5 63.5l52 -51q-29 -52 -87 -80.5t-135 -28.5q-92 0 -160 44zM195 897h74
l67 -88l67 88h74l-112 -143h-58z" />
    <glyph glyph-name="ccaron" unicode="&#x10d;" horiz-adv-x="473"
d="M95.5 58.5q-61.5 68.5 -61.5 191.5t61.5 191.5t172.5 68.5q63 0 111.5 -24.5t76.5 -70.5l-51 -46q-22 34 -57.5 53.5t-76.5 19.5q-71 0 -111.5 -50.5t-40.5 -141.5q0 -90 40.5 -141t111.5 -51q41 0 76.5 19.5t57.5 53.5l51 -46q-28 -46 -76.5 -70.5t-111.5 -24.5
q-111 0 -172.5 68.5zM130 697h74l67 -88l67 88h74l-112 -143h-58z" />
    <glyph glyph-name="Dcaron" unicode="&#x10e;" horiz-adv-x="623"
d="M81 700h222q137 0 206.5 -85t69.5 -251q0 -130 -31 -209.5t-97.5 -117t-175.5 -37.5h-194v700zM291 76q102 0 149 69t47 219q0 133 -46 196.5t-142 63.5h-126v-548h118zM171 897h74l67 -88l67 88h74l-112 -143h-58z" />
    <glyph glyph-name="dcaron" unicode="&#x10f;" horiz-adv-x="663"
d="M90.5 62q-56.5 72 -56.5 197q0 76 26 132.5t74 87.5t112 31q92 0 148 -77h2v309h84v-616q0 -93 3 -126h-78q-2 24 -2 79h-2q-23 -40 -66 -64.5t-91 -24.5q-97 0 -153.5 72zM357.5 96.5q37.5 38.5 37.5 103.5v91q0 70 -38 112t-101 42q-64 0 -100.5 -49.5t-36.5 -138.5
q0 -93 36.5 -146t100.5 -53t101.5 38.5zM637 744.5q16 -18.5 16 -47.5q0 -33 -17.5 -71t-45.5 -66l-36 26q2 4 16.5 25t21.5 43h-2q-23 0 -38 15t-15 38q0 25 15 40.5t40 15.5q29 0 45 -18.5z" />
    <glyph glyph-name="Dcroat" unicode="&#x110;" horiz-adv-x="625"
d="M511.5 615q69.5 -85 69.5 -251q0 -130 -31 -209.5t-97.5 -117t-175.5 -37.5h-194v302h-75v71h75v327h222q137 0 206.5 -85zM442 145q47 69 47 219q0 133 -46 196.5t-142 63.5h-126v-251h206v-71h-206v-226h118q102 0 149 69z" />
    <glyph glyph-name="dcroat" unicode="&#x111;" horiz-adv-x="558"
d="M480 600v-474q0 -93 3 -126h-78q-2 24 -2 79h-2q-23 -40 -66 -64.5t-91 -24.5q-97 0 -153.5 72t-56.5 197q0 76 26 132.5t74 87.5t112 31q92 0 148 -77h2v167h-144v58h144v84h84v-84h58v-58h-58zM395 291q0 70 -38 112t-101 42q-64 0 -100.5 -49.5t-36.5 -138.5
q0 -93 36.5 -146t100.5 -53t101.5 38.5t37.5 103.5v91z" />
    <glyph glyph-name="Emacron" unicode="&#x112;" horiz-adv-x="552"
d="M81 700h420v-76h-328v-218h293v-76h-293v-254h328v-76h-420v700zM139 823h312v-59h-312v59z" />
    <glyph glyph-name="emacron" unicode="&#x113;" horiz-adv-x="518"
d="M482 217h-360q7 -76 45 -115.5t105 -39.5q90 0 143 71l48 -46q-29 -46 -80.5 -71.5t-113.5 -25.5q-111 0 -172 68t-61 191q0 122 61.5 191.5t169.5 69.5q101 0 158 -68.5t57 -191.5v-33zM404 287q0 72 -37.5 113t-103.5 41q-62 0 -98.5 -42t-42.5 -119h282v7zM110 623
h312v-59h-312v59z" />
    <glyph glyph-name="Ebreve" unicode="&#x114;" horiz-adv-x="552"
d="M81 700h420v-76h-328v-218h293v-76h-293v-254h328v-76h-420v700zM191.5 787.5q-38.5 33.5 -41.5 99.5h54q2 -35 25 -55.5t66 -20.5q40 0 64 19t27 57h54q-2 -62 -38.5 -97.5t-106.5 -35.5q-65 0 -103.5 33.5z" />
    <glyph glyph-name="ebreve" unicode="&#x115;" horiz-adv-x="518"
d="M482 217h-360q7 -76 45 -115.5t105 -39.5q90 0 143 71l48 -46q-29 -46 -80.5 -71.5t-113.5 -25.5q-111 0 -172 68t-61 191q0 122 61.5 191.5t169.5 69.5q101 0 158 -68.5t57 -191.5v-33zM404 287q0 72 -37.5 113t-103.5 41q-62 0 -98.5 -42t-42.5 -119h282v7z
M162.5 587.5q-38.5 33.5 -41.5 99.5h54q2 -35 25 -55.5t66 -20.5q40 0 64 19t27 57h54q-2 -62 -38.5 -97.5t-106.5 -35.5q-65 0 -103.5 33.5z" />
    <glyph glyph-name="Edotaccent" unicode="&#x116;" horiz-adv-x="552"
d="M81 700h420v-76h-328v-218h293v-76h-293v-254h328v-76h-420v700zM258 768.5q-15 14.5 -15 36.5t14.5 36.5t37.5 14.5t37.5 -14.5t14.5 -36.5t-15 -36.5t-37 -14.5t-37 14.5z" />
    <glyph glyph-name="edotaccent" unicode="&#x117;" horiz-adv-x="518"
d="M482 217h-360q7 -76 45 -115.5t105 -39.5q90 0 143 71l48 -46q-29 -46 -80.5 -71.5t-113.5 -25.5q-111 0 -172 68t-61 191q0 122 61.5 191.5t169.5 69.5q101 0 158 -68.5t57 -191.5v-33zM404 287q0 72 -37.5 113t-103.5 41q-62 0 -98.5 -42t-42.5 -119h282v7zM229 568.5
q-15 14.5 -15 36.5t14.5 36.5t37.5 14.5t37.5 -14.5t14.5 -36.5t-15 -36.5t-37 -14.5t-37 14.5z" />
    <glyph glyph-name="Eogonek" unicode="&#x118;" horiz-adv-x="552"
d="M546 -181q-17 -14 -40.5 -22t-49.5 -8q-45 0 -71.5 22.5t-26.5 67.5q0 74 85 121h-362v700h420v-76h-328v-218h293v-76h-293v-254h328v-76q-81 -56 -81 -109q0 -22 15.5 -35t47.5 -13q22 0 52 12z" />
    <glyph glyph-name="eogonek" unicode="&#x119;" horiz-adv-x="518"
d="M482 217h-360q7 -76 45 -115.5t105 -39.5q90 0 143 71l48 -46q-23 -36 -62 -61q-51 -44 -51 -86q0 -22 15.5 -35t47.5 -13q22 0 52 12l11 -36q-17 -14 -40.5 -22t-49.5 -8q-45 0 -71.5 22.5t-26.5 67.5q0 36 20 65q-19 -3 -39 -3q-111 0 -172 68t-61 191
q0 122 61.5 191.5t169.5 69.5q101 0 158 -68.5t57 -191.5v-33zM404 287q0 72 -37.5 113t-103.5 41q-62 0 -98.5 -42t-42.5 -119h282v7z" />
    <glyph glyph-name="Ecaron" unicode="&#x11a;" horiz-adv-x="552"
d="M81 700h420v-76h-328v-218h293v-76h-293v-254h328v-76h-420v700zM154 897h74l67 -88l67 88h74l-112 -143h-58z" />
    <glyph glyph-name="ecaron" unicode="&#x11b;" horiz-adv-x="518"
d="M482 217h-360q7 -76 45 -115.5t105 -39.5q90 0 143 71l48 -46q-29 -46 -80.5 -71.5t-113.5 -25.5q-111 0 -172 68t-61 191q0 122 61.5 191.5t169.5 69.5q101 0 158 -68.5t57 -191.5v-33zM404 287q0 72 -37.5 113t-103.5 41q-62 0 -98.5 -42t-42.5 -119h282v7zM125 697h74
l67 -88l67 88h74l-112 -143h-58z" />
    <glyph glyph-name="Gcircumflex" unicode="&#x11c;" horiz-adv-x="636"
d="M575 362v-362h-62l-15 44q-33 -26 -77.5 -40t-94.5 -14q-90 0 -156 43.5t-101 124.5t-35 192q0 109 37.5 190t106 125.5t160.5 44.5q78 0 138 -29t88 -80l-51 -51q-26 41 -70.5 62.5t-103.5 21.5q-100 0 -156 -75t-56 -209q0 -136 54.5 -212t152.5 -76q46 0 84.5 13
t65.5 38v181h-167v68h258zM308 897h58l112 -143h-74l-67 88l-67 -88h-74z" />
    <glyph glyph-name="gcircumflex" unicode="&#x11d;" horiz-adv-x="541"
d="M480 500v-484q0 -120 -59 -182t-173 -62q-50 0 -97.5 12t-85.5 34l28 62q75 -36 152 -36q156 0 156 185v46q-20 -38 -61 -60t-93 -22q-99 0 -156 71t-57 194q0 118 56 185t154 67q52 0 91.5 -21t62.5 -61h2l10 72h70zM395 283q0 76 -36 119t-100 43q-65 0 -102.5 -50.5
t-37.5 -138.5q0 -92 37 -143.5t103 -51.5q64 0 100 38.5t36 107.5v76zM226 697h58l112 -143h-74l-67 88l-67 -88h-74z" />
    <glyph glyph-name="Gbreve" unicode="&#x11e;" horiz-adv-x="636"
d="M575 362v-362h-62l-15 44q-33 -26 -77.5 -40t-94.5 -14q-90 0 -156 43.5t-101 124.5t-35 192q0 109 37.5 190t106 125.5t160.5 44.5q78 0 138 -29t88 -80l-51 -51q-26 41 -70.5 62.5t-103.5 21.5q-100 0 -156 -75t-56 -209q0 -136 54.5 -212t152.5 -76q46 0 84.5 13
t65.5 38v181h-167v68h258zM233.5 787.5q-38.5 33.5 -41.5 99.5h54q2 -35 25 -55.5t66 -20.5q40 0 64 19t27 57h54q-2 -62 -38.5 -97.5t-106.5 -35.5q-65 0 -103.5 33.5z" />
    <glyph glyph-name="gbreve" unicode="&#x11f;" horiz-adv-x="541"
d="M480 500v-484q0 -120 -59 -182t-173 -62q-50 0 -97.5 12t-85.5 34l28 62q75 -36 152 -36q156 0 156 185v46q-20 -38 -61 -60t-93 -22q-99 0 -156 71t-57 194q0 118 56 185t154 67q52 0 91.5 -21t62.5 -61h2l10 72h70zM395 283q0 76 -36 119t-100 43q-65 0 -102.5 -50.5
t-37.5 -138.5q0 -92 37 -143.5t103 -51.5q64 0 100 38.5t36 107.5v76zM151.5 587.5q-38.5 33.5 -41.5 99.5h54q2 -35 25 -55.5t66 -20.5q40 0 64 19t27 57h54q-2 -62 -38.5 -97.5t-106.5 -35.5q-65 0 -103.5 33.5z" />
    <glyph glyph-name="Gdotaccent" unicode="&#x120;" horiz-adv-x="636"
d="M575 362v-362h-62l-15 44q-33 -26 -77.5 -40t-94.5 -14q-90 0 -156 43.5t-101 124.5t-35 192q0 109 37.5 190t106 125.5t160.5 44.5q78 0 138 -29t88 -80l-51 -51q-26 41 -70.5 62.5t-103.5 21.5q-100 0 -156 -75t-56 -209q0 -136 54.5 -212t152.5 -76q46 0 84.5 13
t65.5 38v181h-167v68h258zM300 768.5q-15 14.5 -15 36.5t14.5 36.5t37.5 14.5t37.5 -14.5t14.5 -36.5t-15 -36.5t-37 -14.5t-37 14.5z" />
    <glyph glyph-name="gdotaccent" unicode="&#x121;" horiz-adv-x="541"
d="M480 500v-484q0 -120 -59 -182t-173 -62q-50 0 -97.5 12t-85.5 34l28 62q75 -36 152 -36q156 0 156 185v46q-20 -38 -61 -60t-93 -22q-99 0 -156 71t-57 194q0 118 56 185t154 67q52 0 91.5 -21t62.5 -61h2l10 72h70zM395 283q0 76 -36 119t-100 43q-65 0 -102.5 -50.5
t-37.5 -138.5q0 -92 37 -143.5t103 -51.5q64 0 100 38.5t36 107.5v76zM218 568.5q-15 14.5 -15 36.5t14.5 36.5t37.5 14.5t37.5 -14.5t14.5 -36.5t-15 -36.5t-37 -14.5t-37 14.5z" />
    <glyph glyph-name="uni0122" unicode="&#x122;" horiz-adv-x="636"
d="M575 362v-362h-62l-15 44q-33 -26 -77.5 -40t-94.5 -14q-90 0 -156 43.5t-101 124.5t-35 192q0 109 37.5 190t106 125.5t160.5 44.5q78 0 138 -29t88 -80l-51 -51q-26 41 -70.5 62.5t-103.5 21.5q-100 0 -156 -75t-56 -209q0 -136 54.5 -212t152.5 -76q46 0 84.5 13
t65.5 38v181h-167v68h258zM382 -90.5q16 -18.5 16 -47.5q0 -33 -17.5 -71t-45.5 -66l-36 26q2 3 16.5 24.5t21.5 44.5h-2q-23 0 -38 14.5t-15 38.5t15 39.5t40 15.5q29 0 45 -18.5z" />
    <glyph glyph-name="uni0123" unicode="&#x123;" horiz-adv-x="541"
d="M480 500v-484q0 -120 -59 -182t-173 -62q-50 0 -97.5 12t-85.5 34l28 62q75 -36 152 -36q156 0 156 185v46q-20 -38 -61 -60t-93 -22q-99 0 -156 71t-57 194q0 118 56 185t154 67q52 0 91.5 -21t62.5 -61h2l10 72h70zM395 283q0 76 -36 119t-100 43q-65 0 -102.5 -50.5
t-37.5 -138.5q0 -92 37 -143.5t103 -51.5q64 0 100 38.5t36 107.5v76zM297.5 648q14.5 -15 14.5 -38q0 -25 -14.5 -40.5t-39.5 -15.5q-29 0 -45.5 18.5t-16.5 47.5q0 33 17.5 70.5t46.5 66.5l36 -26q-29 -41 -39 -68h3q23 0 37.5 -15z" />
    <glyph glyph-name="Hcircumflex" unicode="&#x124;" horiz-adv-x="678"
d="M80 700h92v-308h334v308h92v-700h-92v316h-334v-316h-92v700zM310 897h58l112 -143h-74l-67 88l-67 -88h-74z" />
    <glyph glyph-name="hcircumflex" unicode="&#x125;" horiz-adv-x="558"
d="M61 742h85v-320q23 41 67.5 64.5t99.5 23.5q88 0 136 -58.5t48 -165.5v-286h-85v287q0 77 -29.5 117.5t-84.5 40.5q-43 0 -78 -22t-54.5 -61.5t-19.5 -88.5v-273h-85v742zM174 939h58l112 -143h-74l-67 88l-67 -88h-74z" />
    <glyph glyph-name="Hbar" unicode="&#x126;" horiz-adv-x="698"
d="M668 501h-60v-501h-92v316h-334v-316h-92v501h-60v60h60v139h92v-139h334v139h92v-139h60v-60zM516 501h-334v-109h334v109z" />
    <glyph glyph-name="hbar" unicode="&#x127;" horiz-adv-x="558"
d="M449 451.5q48 -58.5 48 -165.5v-286h-85v287q0 77 -29.5 117.5t-84.5 40.5q-43 0 -78 -22t-54.5 -61.5t-19.5 -88.5v-273h-85v600h-57v58h57v84h85v-84h138v-58h-138v-178q23 41 67.5 64.5t99.5 23.5q88 0 136 -58.5z" />
    <glyph glyph-name="Itilde" unicode="&#x128;" horiz-adv-x="292"
d="M100 700h92v-700h-92v700zM23.5 827q22.5 28 58.5 28q18 0 32.5 -6t41.5 -21q31 -20 47 -20q14 0 21.5 12t9.5 39h52q-1 -48 -24 -76.5t-60 -28.5q-19 0 -36 7.5t-41 21.5q-29 18 -41 18q-13 0 -21.5 -12.5t-9.5 -34.5h-52q0 45 22.5 73z" />
    <glyph glyph-name="itilde" unicode="&#x129;" horiz-adv-x="253"
d="M84 500h85v-500h-85v500zM2.5 627q22.5 28 58.5 28q18 0 32.5 -6t41.5 -21q31 -20 47 -20q14 0 21.5 12t9.5 39h52q-1 -48 -24 -76.5t-60 -28.5q-19 0 -36 7.5t-41 21.5q-29 18 -41 18q-13 0 -21.5 -12.5t-9.5 -34.5h-52q0 45 22.5 73z" />
    <glyph glyph-name="Imacron" unicode="&#x12a;" horiz-adv-x="292"
d="M100 700h92v-700h-92v700zM-9 823h312v-59h-312v59z" />
    <glyph glyph-name="imacron" unicode="&#x12b;" horiz-adv-x="253"
d="M84 500h85v-500h-85v500zM-30 623h312v-59h-312v59z" />
    <glyph glyph-name="Ibreve" unicode="&#x12c;" horiz-adv-x="292"
d="M100 700h92v-700h-92v700zM43.5 787.5q-38.5 33.5 -41.5 99.5h54q2 -35 25 -55.5t66 -20.5q40 0 64 19t27 57h54q-2 -62 -38.5 -97.5t-106.5 -35.5q-65 0 -103.5 33.5z" />
    <glyph glyph-name="ibreve" unicode="&#x12d;" horiz-adv-x="253"
d="M84 500h85v-500h-85v500zM22.5 587.5q-38.5 33.5 -41.5 99.5h54q2 -35 25 -55.5t66 -20.5q40 0 64 19t27 57h54q-2 -62 -38.5 -97.5t-106.5 -35.5q-65 0 -103.5 33.5z" />
    <glyph glyph-name="Iogonek" unicode="&#x12e;" horiz-adv-x="292"
d="M220 -181q-17 -14 -40.5 -22t-49.5 -8q-45 0 -71.5 22.5t-26.5 67.5q0 74 85 121h-17v700h92v-700h-17q-81 -56 -81 -109q0 -22 15.5 -35t47.5 -13q22 0 52 12z" />
    <glyph glyph-name="iogonek" unicode="&#x12f;" horiz-adv-x="245"
d="M78 602q-16 15 -16 41t16 41.5t44 15.5t44.5 -15.5t16.5 -41.5t-16.5 -41t-44.5 -15t-44 15zM198 -181q-17 -14 -40.5 -22t-49.5 -8q-45 0 -71.5 22.5t-26.5 67.5q0 74 85 121h-15v500h85v-500h-12q-81 -56 -81 -109q0 -22 15.5 -35t47.5 -13q22 0 52 12z" />
    <glyph glyph-name="Idotaccent" unicode="&#x130;" horiz-adv-x="292"
d="M100 700h92v-700h-92v700zM110 768.5q-15 14.5 -15 36.5t14.5 36.5t37.5 14.5t37.5 -14.5t14.5 -36.5t-15 -36.5t-37 -14.5t-37 14.5z" />
    <glyph glyph-name="dotlessi" unicode="&#x131;" horiz-adv-x="253"
d="M84 500h85v-500h-85v500z" />
    <glyph glyph-name="IJ" unicode="&#x132;" horiz-adv-x="732"
d="M100 700h92v-700h-92v700zM366.5 4.5q-41.5 14.5 -67.5 37.5l35 66q20 -19 51.5 -30.5t62.5 -11.5q59 0 85.5 40.5t26.5 132.5v461h92v-477q0 -121 -48 -177t-153 -56q-43 0 -84.5 14.5z" />
    <glyph glyph-name="ij" unicode="&#x133;" horiz-adv-x="492"
d="M78 602q-16 15 -16 41t16 41.5t44 15.5t44.5 -15.5t16.5 -41.5t-16.5 -41t-44.5 -15t-44 15zM80 500h85v-500h-85v500zM332.5 602.5q-16.5 15.5 -16.5 40.5q0 26 16.5 41.5t44.5 15.5q27 0 43.5 -15.5t16.5 -41.5q0 -25 -16.5 -40.5t-43.5 -15.5q-28 0 -44.5 15.5z
M197 -183l3 63q16 -2 40 -2q53 0 75 30t22 94v498h85v-501q0 -93 -39 -141t-122 -48q-32 0 -64 7z" />
    <glyph glyph-name="Jcircumflex" unicode="&#x134;" horiz-adv-x="440"
d="M74.5 4.5q-41.5 14.5 -67.5 37.5l35 66q20 -19 51.5 -30.5t62.5 -11.5q59 0 85.5 40.5t26.5 132.5v461h92v-477q0 -121 -48 -177t-153 -56q-43 0 -84.5 14.5zM200 897h58l112 -143h-74l-67 88l-67 -88h-74z" />
    <glyph glyph-name="jcircumflex" unicode="&#x135;" horiz-adv-x="247"
d="M-48 -183l3 63q16 -2 40 -2q50 0 71 30t21 94v498h85v-501q0 -93 -38 -141t-119 -48q-31 0 -63 7zM100 697h58l112 -143h-74l-67 88l-67 -88h-74z" />
    <glyph glyph-name="uni0136" unicode="&#x136;" horiz-adv-x="605"
d="M495 0l-223 349l-100 -120v-229h-92v700h92v-347l285 347h107l-231 -278l262 -422h-100zM349 -90.5q16 -18.5 16 -47.5q0 -33 -17.5 -71t-45.5 -66l-36 26q2 3 16.5 24.5t21.5 44.5h-2q-23 0 -38 14.5t-15 38.5t15 39.5t40 15.5q29 0 45 -18.5z" />
    <glyph glyph-name="uni0137" unicode="&#x137;" horiz-adv-x="487"
d="M384 0l-165 251l-73 -73v-178h-85v742h85v-462l219 220h102l-191 -192l205 -308h-97zM289 -90.5q16 -18.5 16 -47.5q0 -33 -17.5 -71t-45.5 -66l-36 26q2 3 16.5 24.5t21.5 44.5h-2q-23 0 -38 14.5t-15 38.5t15 39.5t40 15.5q29 0 45 -18.5z" />
    <glyph glyph-name="kgreenlandic" unicode="&#x138;" horiz-adv-x="487"
d="M384 0l-158 247l-80 -85v-162h-85v500h85v-235l219 235h102l-185 -194l199 -306h-97z" />
    <glyph glyph-name="Lacute" unicode="&#x139;" horiz-adv-x="548"
d="M80 700h92v-624h338v-76h-430v700zM174 900h87l-97 -146h-68z" />
    <glyph glyph-name="lacute" unicode="&#x13a;" horiz-adv-x="291"
d="M70 117v625h85v-624q0 -35 11.5 -49.5t39.5 -14.5q22 0 50 12l13 -51q-38 -25 -91 -25q-108 0 -108 127zM161 942h87l-97 -146h-68z" />
    <glyph glyph-name="uni013B" unicode="&#x13b;" horiz-adv-x="548"
d="M80 700h92v-624h338v-76h-430v700zM338 -90.5q16 -18.5 16 -47.5q0 -33 -17.5 -71t-45.5 -66l-36 26q2 3 16.5 24.5t21.5 44.5h-2q-23 0 -38 14.5t-15 38.5t15 39.5t40 15.5q29 0 45 -18.5z" />
    <glyph glyph-name="uni013C" unicode="&#x13c;" horiz-adv-x="291"
d="M70 117v625h85v-624q0 -35 11.5 -49.5t39.5 -14.5q22 0 50 12l13 -51q-38 -25 -91 -25q-108 0 -108 127zM221 -90.5q16 -18.5 16 -47.5q0 -33 -17.5 -71t-45.5 -66l-36 26q2 3 16.5 24.5t21.5 44.5h-2q-23 0 -38 14.5t-15 38.5t15 39.5t40 15.5q29 0 45 -18.5z" />
    <glyph glyph-name="Lcaron" unicode="&#x13d;" horiz-adv-x="548"
d="M80 700h92v-624h338v-76h-430v700zM458 691.5q16 -18.5 16 -47.5q0 -33 -17.5 -71t-45.5 -66l-36 26q2 4 16.5 25t21.5 43h-2q-23 0 -38 15t-15 38q0 25 15 40.5t40 15.5q29 0 45 -18.5z" />
    <glyph glyph-name="lcaron" unicode="&#x13e;" horiz-adv-x="332"
d="M70 117v625h85v-624q0 -35 11.5 -49.5t39.5 -14.5q22 0 50 12l13 -51q-38 -25 -91 -25q-108 0 -108 127zM321 725.5q16 -18.5 16 -47.5q0 -33 -17.5 -71t-45.5 -66l-36 26q2 4 16.5 25t21.5 43h-2q-23 0 -38 15t-15 38q0 25 15 40.5t40 15.5q29 0 45 -18.5z" />
    <glyph glyph-name="Ldot" unicode="&#x13f;" horiz-adv-x="548"
d="M80 700h92v-624h338v-76h-430v700zM290.5 301.5q-17.5 18.5 -17.5 46.5q0 29 17.5 47.5t44.5 18.5t44.5 -18.5t17.5 -47.5q0 -28 -17.5 -46.5t-44.5 -18.5t-44.5 18.5z" />
    <glyph glyph-name="ldot" unicode="&#x140;" horiz-adv-x="336"
d="M70 117v625h85v-624q0 -35 11.5 -49.5t39.5 -14.5q22 0 50 12l13 -51q-38 -25 -91 -25q-108 0 -108 127zM224.5 283.5q-17.5 18.5 -17.5 46.5q0 29 17.5 47.5t44.5 18.5t44.5 -18.5t17.5 -47.5q0 -28 -17.5 -46.5t-44.5 -18.5t-44.5 18.5z" />
    <glyph glyph-name="Lslash" unicode="&#x141;" horiz-adv-x="548"
d="M510 76v-76h-430v277l-63 -26v73l63 27v349h92v-310l176 76v-77l-176 -73v-240h338z" />
    <glyph glyph-name="lslash" unicode="&#x142;" horiz-adv-x="291"
d="M269 15q-38 -25 -91 -25q-108 0 -108 127v216l-51 -22v66l51 22v343h85v-307l102 44v-67l-102 -43v-251q0 -35 11.5 -49.5t39.5 -14.5q22 0 50 12z" />
    <glyph glyph-name="Nacute" unicode="&#x143;" horiz-adv-x="682"
d="M602 700v-700h-91l-339 554v-554h-92v700h97l333 -547v547h92zM389 900h87l-97 -146h-68z" />
    <glyph glyph-name="nacute" unicode="&#x144;" horiz-adv-x="549"
d="M60 374q0 95 -4 126h79q4 -33 4 -89h3q22 46 67.5 72.5t101.5 26.5q88 0 132 -57t44 -170v-283h-85v284q0 80 -27 119t-82 39q-42 0 -76 -21.5t-53 -60t-19 -86.5v-274h-85v374zM322 700h87l-97 -146h-68z" />
    <glyph glyph-name="uni0145" unicode="&#x145;" horiz-adv-x="682"
d="M602 700v-700h-91l-339 554v-554h-92v700h97l333 -547v547h92zM386 -90.5q16 -18.5 16 -47.5q0 -33 -17.5 -71t-45.5 -66l-36 26q2 3 16.5 24.5t21.5 44.5h-2q-23 0 -38 14.5t-15 38.5t15 39.5t40 15.5q29 0 45 -18.5z" />
    <glyph glyph-name="uni0146" unicode="&#x146;" horiz-adv-x="549"
d="M60 374q0 95 -4 126h79q4 -33 4 -89h3q22 46 67.5 72.5t101.5 26.5q88 0 132 -57t44 -170v-283h-85v284q0 80 -27 119t-82 39q-42 0 -76 -21.5t-53 -60t-19 -86.5v-274h-85v374zM319 -90.5q16 -18.5 16 -47.5q0 -33 -17.5 -71t-45.5 -66l-36 26q2 3 16.5 24.5t21.5 44.5
h-2q-23 0 -38 14.5t-15 38.5t15 39.5t40 15.5q29 0 45 -18.5z" />
    <glyph glyph-name="Ncaron" unicode="&#x147;" horiz-adv-x="682"
d="M602 700v-700h-91l-339 554v-554h-92v700h97l333 -547v547h92zM200 897h74l67 -88l67 88h74l-112 -143h-58z" />
    <glyph glyph-name="ncaron" unicode="&#x148;" horiz-adv-x="549"
d="M60 374q0 95 -4 126h79q4 -33 4 -89h3q22 46 67.5 72.5t101.5 26.5q88 0 132 -57t44 -170v-283h-85v284q0 80 -27 119t-82 39q-42 0 -76 -21.5t-53 -60t-19 -86.5v-274h-85v374zM133 697h74l67 -88l67 88h74l-112 -143h-58z" />
    <glyph glyph-name="napostrophe" unicode="&#x149;" horiz-adv-x="631"
d="M109 691.5q16 -18.5 16 -47.5q0 -33 -17.5 -71t-45.5 -66l-36 26q2 4 16.5 25t21.5 43h-2q-23 0 -38 15t-15 38q0 25 15 40.5t40 15.5q29 0 45 -18.5zM142 374q0 95 -4 126h79q4 -33 4 -89h3q22 46 67.5 72.5t101.5 26.5q88 0 132 -57t44 -170v-283h-85v284q0 80 -27 119
t-82 39q-42 0 -76 -21.5t-53 -60t-19 -86.5v-274h-85v374z" />
    <glyph glyph-name="Eng" unicode="&#x14a;" horiz-adv-x="682"
d="M80 700h97l333 -547v547h92v-740q0 -114 -47 -168t-146 -54q-38 0 -75 12t-60 31l31 61q20 -16 47.5 -25.5t52.5 -9.5q56 0 81.5 37t25.5 120l-1 36l-339 554v-554h-92v700z" />
    <glyph glyph-name="eng" unicode="&#x14b;" horiz-adv-x="549"
d="M267 -184l3 64q12 -2 40 -2q49 0 70.5 28.5t21.5 94.5v283q0 80 -27 119t-82 39q-42 0 -76 -21.5t-53 -60t-19 -86.5v-274h-85v374q0 95 -4 126h79q4 -33 4 -89h3q22 46 67.5 72.5t101.5 26.5q88 0 132 -57t44 -170v-285q0 -188 -156 -188q-37 0 -64 6z" />
    <glyph glyph-name="Omacron" unicode="&#x14c;" horiz-adv-x="661"
d="M173 33.5q-67 43.5 -103 125t-36 191.5t36 191.5t103 125t158 43.5t157.5 -43.5t102.5 -125t36 -191.5t-36 -191.5t-102.5 -125t-157.5 -43.5t-158 43.5zM439.5 99q46.5 35 71 99.5t24.5 151.5t-24.5 151.5t-71 99.5t-108.5 35q-63 0 -109 -35t-71 -99.5t-25 -151.5
t25 -151.5t71 -99.5t109 -35q62 0 108.5 35zM175 823h312v-59h-312v59z" />
    <glyph glyph-name="omacron" unicode="&#x14d;" horiz-adv-x="557"
d="M149.5 21.5q-54.5 31.5 -84 90.5t-29.5 138t29.5 138t84 90.5t128.5 31.5q112 0 177.5 -70t65.5 -190t-65.5 -190t-177.5 -70q-74 0 -128.5 31.5zM394 107q42 52 42 143t-42 143t-116 52q-73 0 -115 -52t-42 -143t42 -143t115 -52q74 0 116 52zM122 623h312v-59h-312v59z
" />
    <glyph glyph-name="Obreve" unicode="&#x14e;" horiz-adv-x="661"
d="M173 33.5q-67 43.5 -103 125t-36 191.5t36 191.5t103 125t158 43.5t157.5 -43.5t102.5 -125t36 -191.5t-36 -191.5t-102.5 -125t-157.5 -43.5t-158 43.5zM439.5 99q46.5 35 71 99.5t24.5 151.5t-24.5 151.5t-71 99.5t-108.5 35q-63 0 -109 -35t-71 -99.5t-25 -151.5
t25 -151.5t71 -99.5t109 -35q62 0 108.5 35zM227.5 787.5q-38.5 33.5 -41.5 99.5h54q2 -35 25 -55.5t66 -20.5q40 0 64 19t27 57h54q-2 -62 -38.5 -97.5t-106.5 -35.5q-65 0 -103.5 33.5z" />
    <glyph glyph-name="obreve" unicode="&#x14f;" horiz-adv-x="557"
d="M149.5 21.5q-54.5 31.5 -84 90.5t-29.5 138t29.5 138t84 90.5t128.5 31.5q112 0 177.5 -70t65.5 -190t-65.5 -190t-177.5 -70q-74 0 -128.5 31.5zM394 107q42 52 42 143t-42 143t-116 52q-73 0 -115 -52t-42 -143t42 -143t115 -52q74 0 116 52zM174.5 587.5
q-38.5 33.5 -41.5 99.5h54q2 -35 25 -55.5t66 -20.5q40 0 64 19t27 57h54q-2 -62 -38.5 -97.5t-106.5 -35.5q-65 0 -103.5 33.5z" />
    <glyph glyph-name="Ohungarumlaut" unicode="&#x150;" horiz-adv-x="661"
d="M173 33.5q-67 43.5 -103 125t-36 191.5t36 191.5t103 125t158 43.5t157.5 -43.5t102.5 -125t36 -191.5t-36 -191.5t-102.5 -125t-157.5 -43.5t-158 43.5zM439.5 99q46.5 35 71 99.5t24.5 151.5t-24.5 151.5t-71 99.5t-108.5 35q-63 0 -109 -35t-71 -99.5t-25 -151.5
t25 -151.5t71 -99.5t109 -35q62 0 108.5 35zM293 900h86l-96 -146h-69zM423 900h86l-96 -146h-69z" />
    <glyph glyph-name="ohungarumlaut" unicode="&#x151;" horiz-adv-x="557"
d="M242 688h81l-90 -137h-65zM364 688h81l-90 -137h-65zM149.5 21.5q-54.5 31.5 -84 90.5t-29.5 138t29.5 138t84 90.5t128.5 31.5q112 0 177.5 -70t65.5 -190t-65.5 -190t-177.5 -70q-74 0 -128.5 31.5zM394 107q42 52 42 143t-42 143t-116 52q-73 0 -115 -52t-42 -143
t42 -143t115 -52q74 0 116 52z" />
    <glyph glyph-name="OE" unicode="&#x152;" horiz-adv-x="889"
d="M555 625v-221h249v-71h-249v-258h283v-75h-375v64q-68 -74 -172 -74q-125 0 -191 92.5t-66 267.5t66 267.5t191 92.5q52 0 95.5 -18.5t76.5 -54.5v63h375v-75h-283zM419.5 137q43.5 73 43.5 213t-43.5 213t-125.5 73q-85 0 -126.5 -71t-41.5 -215t41.5 -215t126.5 -71
q82 0 125.5 73z" />
    <glyph glyph-name="oe" unicode="&#x153;" horiz-adv-x="867"
d="M831 233h-356q4 -83 42.5 -127t106.5 -44q87 0 140 71l48 -46q-29 -46 -79 -71.5t-112 -25.5t-109.5 23.5t-77.5 68.5q-26 -45 -70.5 -68.5t-104.5 -23.5q-108 0 -165.5 67.5t-57.5 192.5t57.5 192.5t165.5 67.5q123 0 176 -93q30 45 77 69t107 24q102 0 157 -63.5
t55 -181.5v-32zM391 250q0 195 -132 195q-68 0 -103.5 -50t-35.5 -145t35.5 -145t103.5 -50q132 0 132 195zM748 299q0 70 -34 106t-99 36q-58 0 -93.5 -38t-44.5 -109h271v5z" />
    <glyph glyph-name="Racute" unicode="&#x154;" horiz-adv-x="581"
d="M81 700h215q114 0 170 -46.5t56 -140.5q0 -70 -35 -118.5t-97 -65.5v-2q21 -14 34 -29.5t22 -37.5l105 -260h-99l-88 226q-17 44 -41 59t-75 15h-75v-300h-92v700zM291 375q143 0 143 132q0 59 -36 88t-110 29h-115v-249h118zM339 900h87l-97 -146h-68z" />
    <glyph glyph-name="racute" unicode="&#x155;" horiz-adv-x="350"
d="M67 378q0 85 -3 122h79q4 -40 4 -88v-10h3q19 52 61 80t99 28q16 0 29 -3v-70q-13 3 -35 3q-42 0 -77 -25.5t-55 -69.5t-20 -96v-249h-85v378zM239 700h87l-97 -146h-68z" />
    <glyph glyph-name="uni0156" unicode="&#x156;" horiz-adv-x="581"
d="M81 700h215q114 0 170 -46.5t56 -140.5q0 -70 -35 -118.5t-97 -65.5v-2q21 -14 34 -29.5t22 -37.5l105 -260h-99l-88 226q-17 44 -41 59t-75 15h-75v-300h-92v700zM291 375q143 0 143 132q0 59 -36 88t-110 29h-115v-249h118zM336 -90.5q16 -18.5 16 -47.5
q0 -33 -17.5 -71t-45.5 -66l-36 26q2 3 16.5 24.5t21.5 44.5h-2q-23 0 -38 14.5t-15 38.5t15 39.5t40 15.5q29 0 45 -18.5z" />
    <glyph glyph-name="uni0157" unicode="&#x157;" horiz-adv-x="350"
d="M67 378q0 85 -3 122h79q4 -40 4 -88v-10h3q19 52 61 80t99 28q16 0 29 -3v-70q-13 3 -35 3q-42 0 -77 -25.5t-55 -69.5t-20 -96v-249h-85v378zM156 -90.5q16 -18.5 16 -47.5q0 -33 -17.5 -71t-45.5 -66l-36 26q2 3 16.5 24.5t21.5 44.5h-2q-23 0 -38 14.5t-15 38.5
t15 39.5t40 15.5q29 0 45 -18.5z" />
    <glyph glyph-name="Rcaron" unicode="&#x158;" horiz-adv-x="581"
d="M81 700h215q114 0 170 -46.5t56 -140.5q0 -70 -35 -118.5t-97 -65.5v-2q21 -14 34 -29.5t22 -37.5l105 -260h-99l-88 226q-17 44 -41 59t-75 15h-75v-300h-92v700zM291 375q143 0 143 132q0 59 -36 88t-110 29h-115v-249h118zM150 897h74l67 -88l67 88h74l-112 -143h-58z
" />
    <glyph glyph-name="rcaron" unicode="&#x159;" horiz-adv-x="350"
d="M67 378q0 85 -3 122h79q4 -40 4 -88v-10h3q19 52 61 80t99 28q16 0 29 -3v-70q-13 3 -35 3q-42 0 -77 -25.5t-55 -69.5t-20 -96v-249h-85v378zM50 697h74l67 -88l67 88h74l-112 -143h-58z" />
    <glyph glyph-name="Sacute" unicode="&#x15a;" horiz-adv-x="529"
d="M133.5 19q-59.5 29 -95.5 80l56 56q31 -40 78 -64.5t93 -24.5q59 0 95.5 30t36.5 79q0 32 -12.5 56t-43 46.5t-86.5 49.5q-107 52 -150.5 98.5t-43.5 108.5q0 80 58 128t154 48q67 0 122.5 -29t80.5 -78l-60 -44q-24 35 -62 55t-80 20q-56 0 -88.5 -26.5t-32.5 -71.5
q0 -27 12 -46t44.5 -39.5t102.5 -55.5q95 -47 136 -96.5t41 -116.5q0 -57 -28.5 -100.5t-80 -67.5t-119.5 -24t-127.5 29zM313 900h87l-97 -146h-68z" />
    <glyph glyph-name="sacute" unicode="&#x15b;" horiz-adv-x="416"
d="M98.5 13q-45.5 23 -64.5 61l55 38q17 -27 47 -42t65 -15q42 0 69.5 24.5t27.5 61.5q0 30 -22 50t-78 41q-85 31 -119.5 65t-34.5 84q0 58 46 93.5t122 35.5q49 0 89.5 -21t62.5 -58l-52 -38q-35 52 -100 52q-37 0 -60.5 -17t-23.5 -44t24 -45.5t89 -43.5
q77 -29 109 -63.5t32 -87.5q0 -70 -50 -112t-132 -42q-56 0 -101.5 23zM257 700h87l-97 -146h-68z" />
    <glyph glyph-name="Scircumflex" unicode="&#x15c;" horiz-adv-x="529"
d="M133.5 19q-59.5 29 -95.5 80l56 56q31 -40 78 -64.5t93 -24.5q59 0 95.5 30t36.5 79q0 32 -12.5 56t-43 46.5t-86.5 49.5q-107 52 -150.5 98.5t-43.5 108.5q0 80 58 128t154 48q67 0 122.5 -29t80.5 -78l-60 -44q-24 35 -62 55t-80 20q-56 0 -88.5 -26.5t-32.5 -71.5
q0 -27 12 -46t44.5 -39.5t102.5 -55.5q95 -47 136 -96.5t41 -116.5q0 -57 -28.5 -100.5t-80 -67.5t-119.5 -24t-127.5 29zM236 897h58l112 -143h-74l-67 88l-67 -88h-74z" />
    <glyph glyph-name="scircumflex" unicode="&#x15d;" horiz-adv-x="416"
d="M98.5 13q-45.5 23 -64.5 61l55 38q17 -27 47 -42t65 -15q42 0 69.5 24.5t27.5 61.5q0 30 -22 50t-78 41q-85 31 -119.5 65t-34.5 84q0 58 46 93.5t122 35.5q49 0 89.5 -21t62.5 -58l-52 -38q-35 52 -100 52q-37 0 -60.5 -17t-23.5 -44t24 -45.5t89 -43.5
q77 -29 109 -63.5t32 -87.5q0 -70 -50 -112t-132 -42q-56 0 -101.5 23zM180 697h58l112 -143h-74l-67 88l-67 -88h-74z" />
    <glyph glyph-name="Scedilla" unicode="&#x15e;" horiz-adv-x="529"
d="M435 50q-54 -51 -145 -59l-28 -53q41 0 66 -18.5t25 -52.5q0 -40 -27.5 -64t-75.5 -24q-20 0 -42 3.5t-34 9.5l8 39q23 -7 56 -7q24 0 39.5 10.5t15.5 30.5q0 18 -20 28t-57 9l-20 22l38 67q-61 6 -112.5 34t-83.5 74l56 56q31 -40 78 -64.5t93 -24.5q59 0 95.5 30
t36.5 79q0 32 -12.5 56t-43 46.5t-86.5 49.5q-107 52 -150.5 98.5t-43.5 108.5q0 80 58 128t154 48q67 0 122.5 -29t80.5 -78l-60 -44q-24 35 -62 55t-80 20q-56 0 -88.5 -26.5t-32.5 -71.5q0 -27 12 -46t44.5 -39.5t102.5 -55.5q95 -47 136 -96.5t41 -116.5q0 -81 -54 -132
z" />
    <glyph glyph-name="scedilla" unicode="&#x15f;" horiz-adv-x="416"
d="M342 41q-40 -41 -108 -49l-28 -54q41 0 66 -18.5t25 -52.5q0 -40 -27.5 -64t-75.5 -24q-20 0 -42 3.5t-34 9.5l8 39q23 -7 56 -7q24 0 39.5 10.5t15.5 30.5q0 18 -20 28t-57 9l-20 22l38 67q-50 5 -89 27t-55 56l55 38q17 -27 47 -42t65 -15q42 0 69.5 24.5t27.5 61.5
q0 30 -22 50t-78 41q-85 31 -119.5 65t-34.5 84q0 58 46 93.5t122 35.5q49 0 89.5 -21t62.5 -58l-52 -38q-35 52 -100 52q-37 0 -60.5 -17t-23.5 -44t24 -45.5t89 -43.5q77 -29 109 -63.5t32 -87.5q0 -62 -40 -103z" />
    <glyph glyph-name="Scaron" unicode="&#x160;" horiz-adv-x="529"
d="M133.5 19q-59.5 29 -95.5 80l56 56q31 -40 78 -64.5t93 -24.5q59 0 95.5 30t36.5 79q0 32 -12.5 56t-43 46.5t-86.5 49.5q-107 52 -150.5 98.5t-43.5 108.5q0 80 58 128t154 48q67 0 122.5 -29t80.5 -78l-60 -44q-24 35 -62 55t-80 20q-56 0 -88.5 -26.5t-32.5 -71.5
q0 -27 12 -46t44.5 -39.5t102.5 -55.5q95 -47 136 -96.5t41 -116.5q0 -57 -28.5 -100.5t-80 -67.5t-119.5 -24t-127.5 29zM124 897h74l67 -88l67 88h74l-112 -143h-58z" />
    <glyph glyph-name="scaron" unicode="&#x161;" horiz-adv-x="416"
d="M98.5 13q-45.5 23 -64.5 61l55 38q17 -27 47 -42t65 -15q42 0 69.5 24.5t27.5 61.5q0 30 -22 50t-78 41q-85 31 -119.5 65t-34.5 84q0 58 46 93.5t122 35.5q49 0 89.5 -21t62.5 -58l-52 -38q-35 52 -100 52q-37 0 -60.5 -17t-23.5 -44t24 -45.5t89 -43.5
q77 -29 109 -63.5t32 -87.5q0 -70 -50 -112t-132 -42q-56 0 -101.5 23zM68 697h74l67 -88l67 88h74l-112 -143h-58z" />
    <glyph glyph-name="uni0162" unicode="&#x162;" horiz-adv-x="558"
d="M308 0l-32 -62q41 0 66 -18.5t25 -52.5q0 -40 -27.5 -64t-75.5 -24q-20 0 -42 3.5t-34 9.5l8 39q23 -7 56 -7q24 0 39.5 10.5t15.5 30.5q0 18 -20 28t-57 9l-20 22l43 76h-20v628h-216v72h523v-72h-215v-628h-17z" />
    <glyph glyph-name="uni0163" unicode="&#x163;" horiz-adv-x="377"
d="M295 -80.5q25 -18.5 25 -52.5q0 -40 -27.5 -64t-75.5 -24q-20 0 -42 3.5t-34 9.5l8 39q23 -7 56 -7q24 0 39.5 10.5t15.5 30.5q0 18 -20 28t-57 9l-20 22l40 70q-49 12 -76 52.5t-27 103.5v284h-90v66h90v133l81 25h4v-158h142v-66h-142v-276q0 -51 19 -75.5t59 -24.5
q43 0 70 11l6 -63q-29 -14 -83 -16l-27 -52q41 0 66 -18.5z" />
    <glyph glyph-name="Tcaron" unicode="&#x164;" horiz-adv-x="558"
d="M233 628h-216v72h523v-72h-215v-628h-92v628zM138 897h74l67 -88l67 88h74l-112 -143h-58z" />
    <glyph glyph-name="tcaron" unicode="&#x165;" horiz-adv-x="458"
d="M138 32.5q-38 42.5 -38 117.5v284h-90v66h90v133l81 25h4v-158h142v-66h-142v-276q0 -51 19 -75.5t59 -24.5q43 0 70 11l6 -63q-33 -16 -97 -16q-66 0 -104 42.5zM431 715.5q16 -18.5 16 -47.5q0 -33 -17.5 -71t-45.5 -66l-36 26q2 4 16.5 25t21.5 43h-2q-23 0 -38 15
t-15 38q0 25 15 40.5t40 15.5q29 0 45 -18.5z" />
    <glyph glyph-name="Tbar" unicode="&#x166;" horiz-adv-x="558"
d="M325 628v-260h164v-62h-164v-306h-92v306h-164v62h164v260h-216v72h523v-72h-215z" />
    <glyph glyph-name="tbar" unicode="&#x167;" horiz-adv-x="377"
d="M339 6q-33 -16 -97 -16q-66 0 -104 42.5t-38 117.5v96h-80v55h80v133h-90v66h90v133l81 25h4v-158h142v-66h-142v-133h110v-55h-110v-88q0 -51 19 -75.5t59 -24.5q43 0 70 11z" />
    <glyph glyph-name="Utilde" unicode="&#x168;" horiz-adv-x="657"
d="M140.5 61.5q-63.5 71.5 -63.5 212.5v426h93v-424q0 -210 159 -210t159 210v424h92v-426q0 -140 -63.5 -212t-187.5 -72q-125 0 -188.5 71.5zM205.5 827q22.5 28 58.5 28q18 0 32.5 -6t41.5 -21q31 -20 47 -20q14 0 21.5 12t9.5 39h52q-1 -48 -24 -76.5t-60 -28.5
q-19 0 -36 7.5t-41 21.5q-29 18 -41 18q-13 0 -21.5 -12.5t-9.5 -34.5h-52q0 45 22.5 73z" />
    <glyph glyph-name="utilde" unicode="&#x169;" horiz-adv-x="552"
d="M105.5 46q-44.5 56 -44.5 165v289h85v-290q0 -152 108 -152q42 0 76 21.5t53 60t19 86.5v274h85v-394q0 -50 9 -106h-78q-9 44 -10 89h-3q-22 -46 -67.5 -72.5t-101.5 -26.5q-86 0 -130.5 56zM155.5 627q22.5 28 58.5 28q18 0 32.5 -6t41.5 -21q31 -20 47 -20
q14 0 21.5 12t9.5 39h52q-1 -48 -24 -76.5t-60 -28.5q-19 0 -36 7.5t-41 21.5q-29 18 -41 18q-13 0 -21.5 -12.5t-9.5 -34.5h-52q0 45 22.5 73z" />
    <glyph glyph-name="Umacron" unicode="&#x16a;" horiz-adv-x="657"
d="M140.5 61.5q-63.5 71.5 -63.5 212.5v426h93v-424q0 -210 159 -210t159 210v424h92v-426q0 -140 -63.5 -212t-187.5 -72q-125 0 -188.5 71.5zM173 823h312v-59h-312v59z" />
    <glyph glyph-name="umacron" unicode="&#x16b;" horiz-adv-x="552"
d="M105.5 46q-44.5 56 -44.5 165v289h85v-290q0 -152 108 -152q42 0 76 21.5t53 60t19 86.5v274h85v-394q0 -50 9 -106h-78q-9 44 -10 89h-3q-22 -46 -67.5 -72.5t-101.5 -26.5q-86 0 -130.5 56zM123 623h312v-59h-312v59z" />
    <glyph glyph-name="Ubreve" unicode="&#x16c;" horiz-adv-x="657"
d="M140.5 61.5q-63.5 71.5 -63.5 212.5v426h93v-424q0 -210 159 -210t159 210v424h92v-426q0 -140 -63.5 -212t-187.5 -72q-125 0 -188.5 71.5zM225.5 787.5q-38.5 33.5 -41.5 99.5h54q2 -35 25 -55.5t66 -20.5q40 0 64 19t27 57h54q-2 -62 -38.5 -97.5t-106.5 -35.5
q-65 0 -103.5 33.5z" />
    <glyph glyph-name="ubreve" unicode="&#x16d;" horiz-adv-x="552"
d="M105.5 46q-44.5 56 -44.5 165v289h85v-290q0 -152 108 -152q42 0 76 21.5t53 60t19 86.5v274h85v-394q0 -50 9 -106h-78q-9 44 -10 89h-3q-22 -46 -67.5 -72.5t-101.5 -26.5q-86 0 -130.5 56zM175.5 587.5q-38.5 33.5 -41.5 99.5h54q2 -35 25 -55.5t66 -20.5q40 0 64 19
t27 57h54q-2 -62 -38.5 -97.5t-106.5 -35.5q-65 0 -103.5 33.5z" />
    <glyph glyph-name="Uring" unicode="&#x16e;" horiz-adv-x="657"
d="M140.5 61.5q-63.5 71.5 -63.5 212.5v426h93v-424q0 -210 159 -210t159 210v424h92v-426q0 -140 -63.5 -212t-187.5 -72q-125 0 -188.5 71.5zM260.5 763q-26.5 25 -26.5 64t26.5 64t68.5 25t68.5 -25t26.5 -64t-26.5 -64t-68.5 -25t-68.5 25zM365 790.5q14 14.5 14 36.5
t-14 36.5t-36 14.5t-36 -14.5t-14 -36.5t14 -36.5t36 -14.5t36 14.5z" />
    <glyph glyph-name="uring" unicode="&#x16f;" horiz-adv-x="552"
d="M105.5 46q-44.5 56 -44.5 165v289h85v-290q0 -152 108 -152q42 0 76 21.5t53 60t19 86.5v274h85v-394q0 -50 9 -106h-78q-9 44 -10 89h-3q-22 -46 -67.5 -72.5t-101.5 -26.5q-86 0 -130.5 56zM210.5 563q-26.5 25 -26.5 64t26.5 64t68.5 25t68.5 -25t26.5 -64t-26.5 -64
t-68.5 -25t-68.5 25zM315 590.5q14 14.5 14 36.5t-14 36.5t-36 14.5t-36 -14.5t-14 -36.5t14 -36.5t36 -14.5t36 14.5z" />
    <glyph glyph-name="Uhungarumlaut" unicode="&#x170;" horiz-adv-x="657"
d="M140.5 61.5q-63.5 71.5 -63.5 212.5v426h93v-424q0 -210 159 -210t159 210v424h92v-426q0 -140 -63.5 -212t-187.5 -72q-125 0 -188.5 71.5zM291 900h86l-96 -146h-69zM421 900h86l-96 -146h-69z" />
    <glyph glyph-name="uhungarumlaut" unicode="&#x171;" horiz-adv-x="552"
d="M105.5 46q-44.5 56 -44.5 165v289h85v-290q0 -152 108 -152q42 0 76 21.5t53 60t19 86.5v274h85v-394q0 -50 9 -106h-78q-9 44 -10 89h-3q-22 -46 -67.5 -72.5t-101.5 -26.5q-86 0 -130.5 56zM241 700h86l-96 -146h-69zM371 700h86l-96 -146h-69z" />
    <glyph glyph-name="Uogonek" unicode="&#x172;" horiz-adv-x="657"
d="M580 700v-426q0 -129 -53.5 -200.5t-158.5 -81.5q-70 -52 -70 -101q0 -22 15.5 -35t47.5 -13q22 0 52 12l11 -36q-17 -14 -40.5 -22t-49.5 -8q-45 0 -71.5 22.5t-26.5 67.5q0 66 69 112q-113 6 -170.5 77.5t-57.5 205.5v426h93v-424q0 -210 159 -210t159 210v424h92z" />
    <glyph glyph-name="uogonek" unicode="&#x173;" horiz-adv-x="552"
d="M527 -181q-17 -14 -40.5 -22t-49.5 -8q-45 0 -71.5 22.5t-26.5 67.5q0 74 85 121h-6q-9 44 -10 89h-3q-22 -46 -67.5 -72.5t-101.5 -26.5q-86 0 -130.5 56t-44.5 165v289h85v-290q0 -152 108 -152q42 0 76 21.5t53 60t19 86.5v274h85v-394q0 -50 9 -106h-14
q-81 -56 -81 -109q0 -22 15.5 -35t47.5 -13q22 0 52 12z" />
    <glyph glyph-name="Wcircumflex" unicode="&#x174;" horiz-adv-x="831"
d="M803 700l-145 -700h-91l-151 574l-152 -574h-91l-146 700h99l98 -559l145 559h93l144 -557l98 557h99zM386 897h58l112 -143h-74l-67 88l-67 -88h-74z" />
    <glyph glyph-name="wcircumflex" unicode="&#x175;" horiz-adv-x="668"
d="M657 500l-125 -500h-77l-121 409l-121 -409h-77l-125 500h89l81 -384l114 384h78l114 -384l81 384h89zM305 697h58l112 -143h-74l-67 88l-67 -88h-74z" />
    <glyph glyph-name="Ycircumflex" unicode="&#x176;" horiz-adv-x="573"
d="M240 278l-223 422h102l167 -334l167 334h102l-222 -422v-278h-93v278zM257 897h58l112 -143h-74l-67 88l-67 -88h-74z" />
    <glyph glyph-name="ycircumflex" unicode="&#x177;" horiz-adv-x="462"
d="M451 500l-181 -509q-69 -193 -213 -193q-26 0 -56 7v65q18 -6 44 -6q51 0 87 37t69 125l-186 474h91l134 -383l119 383h92zM207 697h58l112 -143h-74l-67 88l-67 -88h-74z" />
    <glyph glyph-name="Ydieresis" unicode="&#x178;" horiz-adv-x="573"
d="M240 278l-223 422h102l167 -334l167 334h102l-222 -422v-278h-93v278zM149 768.5q-15 14.5 -15 36.5t14.5 36.5t37.5 14.5q22 0 37 -14.5t15 -36.5t-15 -36.5t-37 -14.5t-37 14.5zM349 768.5q-15 14.5 -15 36.5t15 36.5t37 14.5q23 0 37.5 -14.5t14.5 -36.5t-15 -36.5
t-37 -14.5t-37 14.5z" />
    <glyph glyph-name="Zacute" unicode="&#x179;" horiz-adv-x="567"
d="M34 51l372 573h-343v76h457v-53l-371 -571h384v-76h-499v51zM331 900h87l-97 -146h-68z" />
    <glyph glyph-name="zacute" unicode="&#x17a;" horiz-adv-x="451"
d="M26 48l289 386h-275v66h375v-49l-285 -385h295v-66h-399v48zM273 700h87l-97 -146h-68z" />
    <glyph glyph-name="Zdotaccent" unicode="&#x17b;" horiz-adv-x="567"
d="M34 51l372 573h-343v76h457v-53l-371 -571h384v-76h-499v51zM246 768.5q-15 14.5 -15 36.5t14.5 36.5t37.5 14.5t37.5 -14.5t14.5 -36.5t-15 -36.5t-37 -14.5t-37 14.5z" />
    <glyph glyph-name="zdotaccent" unicode="&#x17c;" horiz-adv-x="451"
d="M26 48l289 386h-275v66h375v-49l-285 -385h295v-66h-399v48zM188 568.5q-15 14.5 -15 36.5t14.5 36.5t37.5 14.5t37.5 -14.5t14.5 -36.5t-15 -36.5t-37 -14.5t-37 14.5z" />
    <glyph glyph-name="Zcaron" unicode="&#x17d;" horiz-adv-x="567"
d="M34 51l372 573h-343v76h457v-53l-371 -571h384v-76h-499v51zM142 897h74l67 -88l67 88h74l-112 -143h-58z" />
    <glyph glyph-name="zcaron" unicode="&#x17e;" horiz-adv-x="451"
d="M26 48l289 386h-275v66h375v-49l-285 -385h295v-66h-399v48zM84 697h74l67 -88l67 88h74l-112 -143h-58z" />
    <glyph glyph-name="uni018F" unicode="&#x18f;" horiz-adv-x="670"
d="M490 667q71 -43 108.5 -125t37.5 -195q0 -111 -36.5 -191.5t-105 -123t-162.5 -42.5q-142 0 -220 92t-78 259v44h509q-8 119 -66 185t-154 66q-63 0 -114.5 -28t-85.5 -81l-56 56q40 61 105.5 94t148.5 33q98 0 169 -43zM480 130.5q56 66.5 63 184.5h-415v-9
q0 -111 55 -176.5t148 -65.5t149 66.5z" />
    <glyph glyph-name="florin" unicode="&#x192;" horiz-adv-x="455"
d="M281 624.5q-21 -18.5 -29 -56.5l-14 -68h150v-68h-164l-105 -513h-89l106 513h-96v68h110l17 81q13 63 51 96t114 33q33 0 63.5 -9.5t48.5 -24.5l-31 -56q-13 10 -32 16.5t-38 6.5q-41 0 -62 -18.5z" />
    <glyph glyph-name="Ohorn" unicode="&#x1a0;" horiz-adv-x="697"
d="M724 700v-37q0 -61 -30.5 -109t-81.5 -74q15 -58 15 -130q0 -110 -36 -191.5t-102.5 -125t-157.5 -43.5t-158 43.5t-103 125t-36 191.5t36 191.5t103 125t158 43.5q94 0 161.5 -46t102.5 -132q28 25 40.5 55.5t12.5 75.5v37h76zM439.5 99q46.5 35 71 99.5t24.5 151.5
t-24.5 151.5t-71 99.5t-108.5 35q-63 0 -109 -35t-71 -99.5t-25 -151.5t25 -151.5t71 -99.5t109 -35q62 0 108.5 35z" />
    <glyph glyph-name="ohorn" unicode="&#x1a1;" horiz-adv-x="598"
d="M628 500v-37q0 -60 -29.5 -107.5t-78.5 -73.5q1 -11 1 -32q0 -120 -65.5 -190t-177.5 -70q-74 0 -128.5 31.5t-84 90.5t-29.5 138t29.5 138t84 90.5t128.5 31.5q89 0 149 -44.5t82 -123.5q23 23 33 52t10 69v37h76zM394 107q42 52 42 143t-42 143t-116 52q-73 0 -115 -52
t-42 -143t42 -143t115 -52q74 0 116 52z" />
    <glyph glyph-name="Uhorn" unicode="&#x1af;" horiz-adv-x="694"
d="M728 700v-37q0 -71 -41.5 -124.5t-106.5 -73.5v-191q0 -140 -63.5 -212t-187.5 -72q-125 0 -188.5 71.5t-63.5 212.5v426h93v-424q0 -210 159 -210t159 210v424h92v-183q38 27 55 61t17 85v37h76z" />
    <glyph glyph-name="uhorn" unicode="&#x1b0;" horiz-adv-x="599"
d="M629 500v-37q0 -70 -39.5 -122.5t-102.5 -73.5v-161q0 -50 9 -106h-78q-9 44 -10 89h-3q-22 -46 -67.5 -72.5t-101.5 -26.5q-86 0 -130.5 56t-44.5 165v289h85v-290q0 -152 108 -152q42 0 76 21.5t53 60t19 86.5v274h85v-179q35 27 50.5 60t15.5 82v37h76z" />
    <glyph glyph-name="uni01CD" unicode="&#x1cd;" horiz-adv-x="596"
d="M434 151h-272l-47 -151h-98l238 700h86l238 -700h-98zM410 226l-112 359l-112 -359h224zM157 897h74l67 -88l67 88h74l-112 -143h-58z" />
    <glyph glyph-name="uni01CE" unicode="&#x1ce;" horiz-adv-x="514"
d="M87 33q-47 43 -47 111q0 75 56.5 116t160.5 41h103v26q0 56 -29.5 85.5t-85.5 29.5q-45 0 -82.5 -18.5t-62.5 -53.5l-43 52q34 43 83 65.5t109 22.5q94 0 145 -46t51 -132v-235q0 -39 12 -97h-74q-9 23 -13 70h-2q-28 -39 -69 -59.5t-91 -20.5q-74 0 -121 43zM291 71.5
q32 14.5 50.5 39.5t18.5 55v74h-106q-63 0 -97 -25t-34 -71q0 -40 26.5 -63.5t71.5 -23.5q38 0 70 14.5zM113 697h74l67 -88l67 88h74l-112 -143h-58z" />
    <glyph glyph-name="uni01CF" unicode="&#x1cf;" horiz-adv-x="292"
d="M100 700h92v-700h-92v700zM6 897h74l67 -88l67 88h74l-112 -143h-58z" />
    <glyph glyph-name="uni01D0" unicode="&#x1d0;" horiz-adv-x="253"
d="M84 500h85v-500h-85v500zM-15 697h74l67 -88l67 88h74l-112 -143h-58z" />
    <glyph glyph-name="uni01D1" unicode="&#x1d1;" horiz-adv-x="661"
d="M173 33.5q-67 43.5 -103 125t-36 191.5t36 191.5t103 125t158 43.5t157.5 -43.5t102.5 -125t36 -191.5t-36 -191.5t-102.5 -125t-157.5 -43.5t-158 43.5zM439.5 99q46.5 35 71 99.5t24.5 151.5t-24.5 151.5t-71 99.5t-108.5 35q-63 0 -109 -35t-71 -99.5t-25 -151.5
t25 -151.5t71 -99.5t109 -35q62 0 108.5 35zM190 897h74l67 -88l67 88h74l-112 -143h-58z" />
    <glyph glyph-name="uni01D2" unicode="&#x1d2;" horiz-adv-x="557"
d="M149.5 21.5q-54.5 31.5 -84 90.5t-29.5 138t29.5 138t84 90.5t128.5 31.5q112 0 177.5 -70t65.5 -190t-65.5 -190t-177.5 -70q-74 0 -128.5 31.5zM394 107q42 52 42 143t-42 143t-116 52q-73 0 -115 -52t-42 -143t42 -143t115 -52q74 0 116 52zM137 697h74l67 -88l67 88
h74l-112 -143h-58z" />
    <glyph glyph-name="uni01D3" unicode="&#x1d3;" horiz-adv-x="657"
d="M140.5 61.5q-63.5 71.5 -63.5 212.5v426h93v-424q0 -210 159 -210t159 210v424h92v-426q0 -140 -63.5 -212t-187.5 -72q-125 0 -188.5 71.5zM188 897h74l67 -88l67 88h74l-112 -143h-58z" />
    <glyph glyph-name="uni01D4" unicode="&#x1d4;" horiz-adv-x="552"
d="M105.5 46q-44.5 56 -44.5 165v289h85v-290q0 -152 108 -152q42 0 76 21.5t53 60t19 86.5v274h85v-394q0 -50 9 -106h-78q-9 44 -10 89h-3q-22 -46 -67.5 -72.5t-101.5 -26.5q-86 0 -130.5 56zM138 697h74l67 -88l67 88h74l-112 -143h-58z" />
    <glyph glyph-name="uni01D5" unicode="&#x1d5;" horiz-adv-x="657"
d="M140.5 61.5q-63.5 71.5 -63.5 212.5v426h93v-424q0 -210 159 -210t159 210v424h92v-426q0 -140 -63.5 -212t-187.5 -72q-125 0 -188.5 71.5zM189 954h281v-54h-281v54zM192 768.5q-15 14.5 -15 36.5t14.5 36.5t37.5 14.5q22 0 37 -14.5t15 -36.5t-15 -36.5t-37 -14.5
t-37 14.5zM392 768.5q-15 14.5 -15 36.5t15 36.5t37 14.5q23 0 37.5 -14.5t14.5 -36.5t-15 -36.5t-37 -14.5t-37 14.5z" />
    <glyph glyph-name="uni01D6" unicode="&#x1d6;" horiz-adv-x="552"
d="M105.5 46q-44.5 56 -44.5 165v289h85v-290q0 -152 108 -152q42 0 76 21.5t53 60t19 86.5v274h85v-394q0 -50 9 -106h-78q-9 44 -10 89h-3q-22 -46 -67.5 -72.5t-101.5 -26.5q-86 0 -130.5 56zM139 754h281v-54h-281v54zM142 568.5q-15 14.5 -15 36.5t14.5 36.5t37.5 14.5
q22 0 37 -14.5t15 -36.5t-15 -36.5t-37 -14.5t-37 14.5zM342 568.5q-15 14.5 -15 36.5t15 36.5t37 14.5q23 0 37.5 -14.5t14.5 -36.5t-15 -36.5t-37 -14.5t-37 14.5z" />
    <glyph glyph-name="uni01D7" unicode="&#x1d7;" horiz-adv-x="657"
d="M140.5 61.5q-63.5 71.5 -63.5 212.5v426h93v-424q0 -210 159 -210t159 210v424h92v-426q0 -140 -63.5 -212t-187.5 -72q-125 0 -188.5 71.5zM343 986h70l-63 -103h-54zM192 768.5q-15 14.5 -15 36.5t14.5 36.5t37.5 14.5q22 0 37 -14.5t15 -36.5t-15 -36.5t-37 -14.5
t-37 14.5zM392 768.5q-15 14.5 -15 36.5t15 36.5t37 14.5q23 0 37.5 -14.5t14.5 -36.5t-15 -36.5t-37 -14.5t-37 14.5z" />
    <glyph glyph-name="uni01D8" unicode="&#x1d8;" horiz-adv-x="552"
d="M105.5 46q-44.5 56 -44.5 165v289h85v-290q0 -152 108 -152q42 0 76 21.5t53 60t19 86.5v274h85v-394q0 -50 9 -106h-78q-9 44 -10 89h-3q-22 -46 -67.5 -72.5t-101.5 -26.5q-86 0 -130.5 56zM293 786h70l-63 -103h-54zM142 568.5q-15 14.5 -15 36.5t14.5 36.5t37.5 14.5
q22 0 37 -14.5t15 -36.5t-15 -36.5t-37 -14.5t-37 14.5zM342 568.5q-15 14.5 -15 36.5t15 36.5t37 14.5q23 0 37.5 -14.5t14.5 -36.5t-15 -36.5t-37 -14.5t-37 14.5z" />
    <glyph glyph-name="uni01D9" unicode="&#x1d9;" horiz-adv-x="657"
d="M140.5 61.5q-63.5 71.5 -63.5 212.5v426h93v-424q0 -210 159 -210t159 210v424h92v-426q0 -140 -63.5 -212t-187.5 -72q-125 0 -188.5 71.5zM193 995h72l64 -74l64 74h72l-110 -121h-53zM192 768.5q-15 14.5 -15 36.5t14.5 36.5t37.5 14.5q22 0 37 -14.5t15 -36.5
t-15 -36.5t-37 -14.5t-37 14.5zM392 768.5q-15 14.5 -15 36.5t15 36.5t37 14.5q23 0 37.5 -14.5t14.5 -36.5t-15 -36.5t-37 -14.5t-37 14.5z" />
    <glyph glyph-name="uni01DA" unicode="&#x1da;" horiz-adv-x="552"
d="M105.5 46q-44.5 56 -44.5 165v289h85v-290q0 -152 108 -152q42 0 76 21.5t53 60t19 86.5v274h85v-394q0 -50 9 -106h-78q-9 44 -10 89h-3q-22 -46 -67.5 -72.5t-101.5 -26.5q-86 0 -130.5 56zM143 795h72l64 -74l64 74h72l-110 -121h-53zM142 568.5q-15 14.5 -15 36.5
t14.5 36.5t37.5 14.5q22 0 37 -14.5t15 -36.5t-15 -36.5t-37 -14.5t-37 14.5zM342 568.5q-15 14.5 -15 36.5t15 36.5t37 14.5q23 0 37.5 -14.5t14.5 -36.5t-15 -36.5t-37 -14.5t-37 14.5z" />
    <glyph glyph-name="uni01DB" unicode="&#x1db;" horiz-adv-x="657"
d="M140.5 61.5q-63.5 71.5 -63.5 212.5v426h93v-424q0 -210 159 -210t159 210v424h92v-426q0 -140 -63.5 -212t-187.5 -72q-125 0 -188.5 71.5zM244 986h70l47 -103h-54zM192 768.5q-15 14.5 -15 36.5t14.5 36.5t37.5 14.5q22 0 37 -14.5t15 -36.5t-15 -36.5t-37 -14.5
t-37 14.5zM392 768.5q-15 14.5 -15 36.5t15 36.5t37 14.5q23 0 37.5 -14.5t14.5 -36.5t-15 -36.5t-37 -14.5t-37 14.5z" />
    <glyph glyph-name="uni01DC" unicode="&#x1dc;" horiz-adv-x="552"
d="M105.5 46q-44.5 56 -44.5 165v289h85v-290q0 -152 108 -152q42 0 76 21.5t53 60t19 86.5v274h85v-394q0 -50 9 -106h-78q-9 44 -10 89h-3q-22 -46 -67.5 -72.5t-101.5 -26.5q-86 0 -130.5 56zM194 786h70l47 -103h-54zM142 568.5q-15 14.5 -15 36.5t14.5 36.5t37.5 14.5
q22 0 37 -14.5t15 -36.5t-15 -36.5t-37 -14.5t-37 14.5zM342 568.5q-15 14.5 -15 36.5t15 36.5t37 14.5q23 0 37.5 -14.5t14.5 -36.5t-15 -36.5t-37 -14.5t-37 14.5z" />
    <glyph glyph-name="Gcaron" unicode="&#x1e6;" horiz-adv-x="636"
d="M575 362v-362h-62l-15 44q-33 -26 -77.5 -40t-94.5 -14q-90 0 -156 43.5t-101 124.5t-35 192q0 109 37.5 190t106 125.5t160.5 44.5q78 0 138 -29t88 -80l-51 -51q-26 41 -70.5 62.5t-103.5 21.5q-100 0 -156 -75t-56 -209q0 -136 54.5 -212t152.5 -76q46 0 84.5 13
t65.5 38v181h-167v68h258zM196 897h74l67 -88l67 88h74l-112 -143h-58z" />
    <glyph glyph-name="gcaron" unicode="&#x1e7;" horiz-adv-x="541"
d="M480 500v-484q0 -120 -59 -182t-173 -62q-50 0 -97.5 12t-85.5 34l28 62q75 -36 152 -36q156 0 156 185v46q-20 -38 -61 -60t-93 -22q-99 0 -156 71t-57 194q0 118 56 185t154 67q52 0 91.5 -21t62.5 -61h2l10 72h70zM395 283q0 76 -36 119t-100 43q-65 0 -102.5 -50.5
t-37.5 -138.5q0 -92 37 -143.5t103 -51.5q64 0 100 38.5t36 107.5v76zM114 697h74l67 -88l67 88h74l-112 -143h-58z" />
    <glyph glyph-name="Aringacute" unicode="&#x1fa;" horiz-adv-x="596"
d="M339 920h-62l51 103h77zM229.5 743q-26.5 25 -26.5 64t26.5 64t68.5 25t68.5 -25t26.5 -64t-26.5 -64t-68.5 -25t-68.5 25zM262 843.5q-14 -14.5 -14 -36.5t14 -36.5t36 -14.5t36 14.5t14 36.5t-14 36.5t-36 14.5t-36 -14.5zM434 151h-272l-47 -151h-98l238 700h86
l238 -700h-98zM410 226l-112 359l-112 -359h224z" />
    <glyph glyph-name="aringacute" unicode="&#x1fb;" horiz-adv-x="514"
d="M278 848h77l-66 -104h-62zM185.5 563q-26.5 25 -26.5 64t26.5 64t68.5 25t68.5 -25t26.5 -64t-26.5 -64t-68.5 -25t-68.5 25zM290 590.5q14 14.5 14 36.5t-14 36.5t-36 14.5t-36 -14.5t-14 -36.5t14 -36.5t36 -14.5t36 14.5zM87 33q-47 43 -47 111q0 75 56.5 116
t160.5 41h103v26q0 56 -29.5 85.5t-85.5 29.5q-45 0 -82.5 -18.5t-62.5 -53.5l-43 52q34 43 83 65.5t109 22.5q94 0 145 -46t51 -132v-235q0 -39 12 -97h-74q-9 23 -13 70h-2q-28 -39 -69 -59.5t-91 -20.5q-74 0 -121 43zM291 71.5q32 14.5 50.5 39.5t18.5 55v74h-106
q-63 0 -97 -25t-34 -71q0 -40 26.5 -63.5t71.5 -23.5q38 0 70 14.5z" />
    <glyph glyph-name="AEacute" unicode="&#x1fc;" horiz-adv-x="800"
d="M466 625v-220h249v-75h-249v-255h283v-75h-375v144h-192l-63 -144h-102l326 700h406v-75h-283zM374 216v365l-160 -365h160zM505 900h87l-97 -146h-68z" />
    <glyph glyph-name="aeacute" unicode="&#x1fd;" horiz-adv-x="830"
d="M794 233h-356q4 -83 42.5 -127t106.5 -44q87 0 140 71l48 -46q-29 -46 -79 -71.5t-112 -25.5q-122 0 -183 86q-31 -39 -80.5 -62.5t-105.5 -23.5q-78 0 -126.5 41.5t-48.5 108.5q0 73 53 113.5t149 40.5h112v33q0 56 -28.5 85.5t-83.5 29.5q-45 0 -82 -18.5t-61 -53.5
l-42 52q33 43 81.5 65.5t107.5 22.5q57 0 99.5 -19.5t65.5 -55.5q62 75 171 75q102 0 157 -63.5t55 -181.5v-32zM711 299q0 70 -34 106t-99 36q-58 0 -93.5 -38t-44.5 -109h271v5zM354 233h-104q-60 0 -94 -24.5t-34 -68.5q0 -37 26.5 -60t70.5 -23q37 0 68 14.5t49 39.5
t18 55v67zM464 700h87l-97 -146h-68z" />
    <glyph glyph-name="Oslashacute" unicode="&#x1fe;" horiz-adv-x="661"
d="M600 519.5q27 -74.5 27 -169.5q0 -110 -36 -191.5t-102.5 -125t-157.5 -43.5q-77 0 -138 32l-35 -65h-73l54 103q-51 47 -78 121t-27 169q0 110 36 191.5t103 125t158 43.5q75 0 135 -31l24 46h77l-45 -85q51 -46 78 -120.5zM182 140l247 469q-42 27 -98 27
q-63 0 -109 -35t-71 -99.5t-25 -151.5q0 -132 56 -210zM439.5 99q46.5 35 71 99.5t24.5 151.5q0 134 -56 210l-249 -467q44 -29 101 -29q62 0 108.5 35zM379 900h87l-97 -146h-68z" />
    <glyph glyph-name="oslashacute" unicode="&#x1ff;" horiz-adv-x="557"
d="M497 376.5q24 -54.5 24 -126.5q0 -120 -65.5 -190t-177.5 -70q-53 0 -94 16l-26 -49h-64l39 75q-47 33 -72 88.5t-25 129.5q0 79 29.5 138t84 90.5t128.5 31.5q53 0 98 -17l22 42h68l-38 -71q45 -33 69 -87.5zM169 100l175 332q-32 13 -66 13q-73 0 -115 -52t-42 -143
q0 -99 48 -150zM394 107q42 52 42 143q0 93 -44 145l-176 -328q29 -12 62 -12q74 0 116 52zM326 700h87l-97 -146h-68z" />
    <glyph glyph-name="uni0218" unicode="&#x218;" horiz-adv-x="529"
d="M133.5 19q-59.5 29 -95.5 80l56 56q31 -40 78 -64.5t93 -24.5q59 0 95.5 30t36.5 79q0 32 -12.5 56t-43 46.5t-86.5 49.5q-107 52 -150.5 98.5t-43.5 108.5q0 80 58 128t154 48q67 0 122.5 -29t80.5 -78l-60 -44q-24 35 -62 55t-80 20q-56 0 -88.5 -26.5t-32.5 -71.5
q0 -27 12 -46t44.5 -39.5t102.5 -55.5q95 -47 136 -96.5t41 -116.5q0 -57 -28.5 -100.5t-80 -67.5t-119.5 -24t-127.5 29zM310 -90.5q16 -18.5 16 -47.5q0 -33 -17.5 -71t-45.5 -66l-36 26q2 3 16.5 24.5t21.5 44.5h-2q-23 0 -38 14.5t-15 38.5t15 39.5t40 15.5
q29 0 45 -18.5z" />
    <glyph glyph-name="uni0219" unicode="&#x219;" horiz-adv-x="416"
d="M98.5 13q-45.5 23 -64.5 61l55 38q17 -27 47 -42t65 -15q42 0 69.5 24.5t27.5 61.5q0 30 -22 50t-78 41q-85 31 -119.5 65t-34.5 84q0 58 46 93.5t122 35.5q49 0 89.5 -21t62.5 -58l-52 -38q-35 52 -100 52q-37 0 -60.5 -17t-23.5 -44t24 -45.5t89 -43.5
q77 -29 109 -63.5t32 -87.5q0 -70 -50 -112t-132 -42q-56 0 -101.5 23zM254 -90.5q16 -18.5 16 -47.5q0 -33 -17.5 -71t-45.5 -66l-36 26q2 3 16.5 24.5t21.5 44.5h-2q-23 0 -38 14.5t-15 38.5t15 39.5t40 15.5q29 0 45 -18.5z" />
    <glyph glyph-name="uni021A" unicode="&#x21a;" horiz-adv-x="558"
d="M233 628h-216v72h523v-72h-215v-628h-92v628zM324 -90.5q16 -18.5 16 -47.5q0 -33 -17.5 -71t-45.5 -66l-36 26q2 3 16.5 24.5t21.5 44.5h-2q-23 0 -38 14.5t-15 38.5t15 39.5t40 15.5q29 0 45 -18.5z" />
    <glyph glyph-name="uni021B" unicode="&#x21b;" horiz-adv-x="377"
d="M138 32.5q-38 42.5 -38 117.5v284h-90v66h90v133l81 25h4v-158h142v-66h-142v-276q0 -51 19 -75.5t59 -24.5q43 0 70 11l6 -63q-33 -16 -97 -16q-66 0 -104 42.5zM277 -90.5q16 -18.5 16 -47.5q0 -33 -17.5 -71t-45.5 -66l-36 26q2 3 16.5 24.5t21.5 44.5h-2
q-23 0 -38 14.5t-15 38.5t15 39.5t40 15.5q29 0 45 -18.5z" />
    <glyph glyph-name="uni0237" unicode="&#x237;" horiz-adv-x="247"
d="M-48 -183l3 63q16 -2 40 -2q50 0 71 30t21 94v498h85v-501q0 -93 -38 -141t-119 -48q-31 0 -63 7z" />
    <glyph glyph-name="uni0251" unicode="&#x251;" horiz-adv-x="536"
d="M89.5 62.5q-55.5 72.5 -55.5 196.5q0 115 56 183t152 68q97 0 146 -77h2v67h84v-374q0 -91 3 -126h-78q-3 43 -2 79h-2q-23 -42 -64.5 -65.5t-89.5 -23.5q-96 0 -151.5 72.5zM353 96.5q37 38.5 37 103.5v91q0 69 -37.5 111.5t-99.5 42.5q-64 0 -99.5 -50t-35.5 -138
q0 -92 35.5 -145.5t99.5 -53.5q63 0 100 38.5z" />
    <glyph glyph-name="uni0259" unicode="&#x259;" horiz-adv-x="518"
d="M421 442q61 -68 61 -191q0 -122 -61.5 -191.5t-169.5 -69.5q-101 0 -158 68.5t-57 191.5v33h360q-7 76 -45 115.5t-105 39.5q-90 0 -143 -71l-48 46q29 46 80.5 71.5t113.5 25.5q111 0 172 -68zM353.5 101q36.5 42 42.5 119h-282v-7q0 -72 37.5 -113t103.5 -41
q62 0 98.5 42z" />
    <glyph glyph-name="uni02BB" unicode="&#x2bb;" horiz-adv-x="200"
d="M142.5 648q14.5 -15 14.5 -38q0 -25 -14.5 -40.5t-39.5 -15.5q-29 0 -45.5 18.5t-16.5 47.5q0 33 17.5 70.5t46.5 66.5l36 -26q-29 -41 -39 -68h3q23 0 37.5 -15z" />
    <glyph glyph-name="uni02BC" unicode="&#x2bc;" horiz-adv-x="200"
d="M145 716.5q16 -18.5 16 -47.5q0 -33 -17.5 -71t-45.5 -66l-36 26q2 4 16.5 25t21.5 43h-2q-23 0 -38 15t-15 38q0 25 15 40.5t40 15.5q29 0 45 -18.5z" />
    <glyph glyph-name="uni02BE" unicode="&#x2be;"
d="M0 576q22 0 36 14.5t14 36.5t-14 36.5t-36 14.5v38q42 0 68.5 -25t26.5 -64t-26.5 -64t-68.5 -25v38z" />
    <glyph glyph-name="uni02BF" unicode="&#x2bf;"
d="M-68.5 563q-26.5 25 -26.5 64t26.5 64t68.5 25v-38q-22 0 -36 -14.5t-14 -36.5t14 -36.5t36 -14.5v-38q-42 0 -68.5 25z" />
    <glyph glyph-name="circumflex" unicode="&#x2c6;" horiz-adv-x="400"
d="M171 697h58l112 -143h-74l-67 88l-67 -88h-74z" />
    <glyph glyph-name="caron" unicode="&#x2c7;" horiz-adv-x="400"
d="M59 697h74l67 -88l67 88h74l-112 -143h-58z" />
    <glyph glyph-name="uni02C8" unicode="&#x2c8;"
d="M-46 740h92v-160h-92v160z" />
    <glyph glyph-name="uni02C9" unicode="&#x2c9;" horiz-adv-x="505"
d="M67 665h371v-57h-371v57z" />
    <glyph glyph-name="uni02CA" unicode="&#x2ca;"
d="M-103 599l115 107q28 26 54 26q20 0 32 -11t12 -29q0 -29 -40 -52l-143 -82z" />
    <glyph glyph-name="uni02CB" unicode="&#x2cb;"
d="M-62 640q-40 23 -40 52q0 18 11.5 29t31.5 11q28 0 55 -25l115 -108l-30 -41z" />
    <glyph glyph-name="uni02CC" unicode="&#x2cc;"
d="M-46 -40h92v-160h-92v160z" />
    <glyph glyph-name="breve" unicode="&#x2d8;" horiz-adv-x="400"
d="M96.5 587.5q-38.5 33.5 -41.5 99.5h54q2 -35 25 -55.5t66 -20.5q40 0 64 19t27 57h54q-2 -62 -38.5 -97.5t-106.5 -35.5q-65 0 -103.5 33.5z" />
    <glyph glyph-name="dotaccent" unicode="&#x2d9;" horiz-adv-x="400"
d="M163 568.5q-15 14.5 -15 36.5t14.5 36.5t37.5 14.5t37.5 -14.5t14.5 -36.5t-15 -36.5t-37 -14.5t-37 14.5z" />
    <glyph glyph-name="ring" unicode="&#x2da;" horiz-adv-x="400"
d="M131.5 563q-26.5 25 -26.5 64t26.5 64t68.5 25t68.5 -25t26.5 -64t-26.5 -64t-68.5 -25t-68.5 25zM236 590.5q14 14.5 14 36.5t-14 36.5t-36 14.5t-36 -14.5t-14 -36.5t14 -36.5t36 -14.5t36 14.5z" />
    <glyph glyph-name="ogonek" unicode="&#x2db;" horiz-adv-x="400"
d="M131.5 -188.5q-26.5 22.5 -26.5 67.5q0 78 95 125h57q-90 -58 -90 -113q0 -22 15.5 -35t47.5 -13q21 0 53 12l11 -36q-38 -30 -91 -30q-45 0 -71.5 22.5z" />
    <glyph glyph-name="tilde" unicode="&#x2dc;" horiz-adv-x="400"
d="M80 627q22 28 59 28q18 0 32.5 -6t41.5 -21q31 -20 47 -20q27 0 30 51h52q0 -47 -23.5 -76t-59.5 -29q-19 0 -36 7.5t-41 21.5q-29 18 -41 18q-13 0 -22 -12.5t-10 -34.5h-52q1 45 23 73z" />
    <glyph glyph-name="hungarumlaut" unicode="&#x2dd;" horiz-adv-x="400"
d="M131 705h86l-103 -151h-68zM274 705h87l-103 -151h-69z" />
    <glyph glyph-name="gravecomb" unicode="&#x300;"
d="M-131 700h87l78 -146h-68z" />
    <glyph glyph-name="acutecomb" unicode="&#x301;"
d="M48 700h87l-97 -146h-68z" />
    <glyph glyph-name="uni0302" unicode="&#x302;"
d="M-29 697h58l112 -143h-74l-67 88l-67 -88h-74z" />
    <glyph glyph-name="tildecomb" unicode="&#x303;"
d="M-123.5 627q22.5 28 58.5 28q18 0 32.5 -6t41.5 -21q31 -20 47 -20q14 0 21.5 12t9.5 39h52q-1 -48 -24 -76.5t-60 -28.5q-19 0 -36 7.5t-41 21.5q-29 18 -41 18q-13 0 -21.5 -12.5t-9.5 -34.5h-52q0 45 22.5 73z" />
    <glyph glyph-name="uni0304" unicode="&#x304;"
d="M-156 623h312v-59h-312v59z" />
    <glyph glyph-name="uni0306" unicode="&#x306;"
d="M-103.5 587.5q-38.5 33.5 -41.5 99.5h54q2 -35 25 -55.5t66 -20.5q40 0 64 19t27 57h54q-2 -62 -38.5 -97.5t-106.5 -35.5q-65 0 -103.5 33.5z" />
    <glyph glyph-name="uni0307" unicode="&#x307;"
d="M-37 568.5q-15 14.5 -15 36.5t14.5 36.5t37.5 14.5t37.5 -14.5t14.5 -36.5t-15 -36.5t-37 -14.5t-37 14.5z" />
    <glyph glyph-name="uni0308" unicode="&#x308;"
d="M-137 568.5q-15 14.5 -15 36.5t14.5 36.5t37.5 14.5q22 0 37 -14.5t15 -36.5t-15 -36.5t-37 -14.5t-37 14.5zM63 568.5q-15 14.5 -15 36.5t15 36.5t37 14.5q23 0 37.5 -14.5t14.5 -36.5t-15 -36.5t-37 -14.5t-37 14.5z" />
    <glyph glyph-name="hookabovecomb" unicode="&#x309;"
d="M-23.5 594.5q10.5 15.5 29.5 32.5q17 17 24.5 27.5t7.5 26.5q0 32 -41 32q-39 0 -63 -45l-38 34q15 29 43 45.5t65 16.5q45 0 71.5 -20.5t26.5 -59.5q0 -24 -10.5 -41t-30.5 -38q-16 -16 -23.5 -27t-7.5 -24h-64q0 25 10.5 40.5z" />
    <glyph glyph-name="uni030A" unicode="&#x30a;"
d="M-68.5 563q-26.5 25 -26.5 64t26.5 64t68.5 25t68.5 -25t26.5 -64t-26.5 -64t-68.5 -25t-68.5 25zM36 590.5q14 14.5 14 36.5t-14 36.5t-36 14.5t-36 -14.5t-14 -36.5t14 -36.5t36 -14.5t36 14.5z" />
    <glyph glyph-name="uni030B" unicode="&#x30b;"
d="M-38 700h86l-96 -146h-69zM92 700h86l-96 -146h-69z" />
    <glyph glyph-name="uni030C" unicode="&#x30c;"
d="M-141 697h74l67 -88l67 88h74l-112 -143h-58z" />
    <glyph glyph-name="uni031B" unicode="&#x31b;"
d="M-90 353q50 31 71 67t21 93v37h76v-37q0 -77 -48 -132.5t-120 -70.5v43z" />
    <glyph glyph-name="dotbelowcomb" unicode="&#x323;"
d="M-37.5 -159.5q-14.5 14.5 -14.5 36.5t14.5 36.5t37.5 14.5t37.5 -14.5t14.5 -36.5t-14.5 -36.5t-37.5 -14.5t-37.5 14.5z" />
    <glyph glyph-name="uni0324" unicode="&#x324;"
d="M-144.5 -159.5q-14.5 14.5 -14.5 36.5t14.5 36.5t37.5 14.5t37.5 -14.5t14.5 -36.5t-14.5 -36.5t-37.5 -14.5t-37.5 14.5zM69.5 -159.5q-14.5 14.5 -14.5 36.5t14.5 36.5t37.5 14.5t37.5 -14.5t14.5 -36.5t-14.5 -36.5t-37.5 -14.5t-37.5 14.5z" />
    <glyph glyph-name="uni0326" unicode="&#x326;"
d="M45 -90.5q16 -18.5 16 -47.5q0 -33 -17.5 -71t-45.5 -66l-36 26q2 3 16.5 24.5t21.5 44.5h-2q-23 0 -38 14.5t-15 38.5t15 39.5t40 15.5q29 0 45 -18.5z" />
    <glyph glyph-name="uni0327" unicode="&#x327;"
d="M-57 -217.5q-22 3.5 -34 9.5l8 39q23 -7 56 -7q24 0 39.5 10.5t15.5 30.5q0 18 -20 28t-57 9l-20 22l50 89h55l-39 -75q41 0 66 -18.5t25 -52.5q0 -40 -27.5 -64t-75.5 -24q-20 0 -42 3.5z" />
    <glyph glyph-name="uni0328" unicode="&#x328;"
d="M-86.5 -188.5q-26.5 22.5 -26.5 67.5q0 79 95 126h48v-5q-81 -56 -81 -109q0 -22 15.5 -35t47.5 -13q22 0 52 12l11 -36q-17 -14 -40.5 -22t-49.5 -8q-45 0 -71.5 22.5z" />
    <glyph glyph-name="uni032E" unicode="&#x32e;"
d="M-103.5 -171q-38.5 33 -41.5 99h54q2 -35 25 -55.5t66 -20.5q40 0 64 19t27 57h54q-2 -62 -38.5 -97t-106.5 -35q-65 0 -103.5 33z" />
    <glyph glyph-name="uni0331" unicode="&#x331;"
d="M-156 -64h312v-59h-312v59z" />
    <glyph glyph-name="uni0394" unicode="&#x394;" horiz-adv-x="648"
d="M5 48l303 652h32l303 -652v-48h-638v48zM545 70l-221 495l-221 -495h442z" />
    <glyph glyph-name="uni03A9" unicode="&#x3a9;" horiz-adv-x="773"
d="M43 72h177q-74 53 -116 139.5t-42 183.5t39.5 168t112.5 109t173 38t173 -38t112 -109t39 -168t-42 -183.5t-115 -139.5h176v-72h-282v88q80 30 125.5 110.5t45.5 189.5q0 115 -62 180.5t-170 65.5t-170.5 -65.5t-62.5 -180.5q0 -111 46 -191t126 -108v-89h-283v72z" />
    <glyph glyph-name="uni03BC" unicode="&#x3bc;" horiz-adv-x="552"
d="M61 500h84v-290q0 -72 29 -112t86 -40q63 0 102.5 48.5t39.5 123.5v270h85v-394q0 -47 9 -106h-77q-8 31 -11 82h-3q-45 -92 -145 -92q-35 0 -65.5 12t-49.5 36v-253h-84v715z" />
    <glyph glyph-name="pi" unicode="&#x3c0;" horiz-adv-x="663"
d="M469 14.5q-22 24.5 -22 76.5v343h-241v-434h-85v434h-96v66h603v-66h-96v-331q0 -42 37 -42q22 0 48 10v-60q-40 -21 -79 -21q-47 0 -69 24.5z" />
    <glyph glyph-name="uni0E01" unicode="&#xe01;" horiz-adv-x="576"
d="M77 252q0 37 19.5 67t53.5 45q-40 14 -107 17q4 61 35 107.5t84 72t121 25.5q99 0 159 -55t60 -147v-384h-85v376q0 65 -38 103t-103 38q-53 0 -93.5 -24.5t-56.5 -66.5q36 -4 68 -18t49 -32v-18q-38 -11 -59.5 -38.5t-21.5 -64.5v-255h-85v252z" />
    <glyph glyph-name="uni0E02" unicode="&#xe02;" horiz-adv-x="594"
d="M520 576v-445q0 -68 -41.5 -104.5t-119.5 -36.5t-119 36.5t-41 104.5v111q0 27 9.5 48t28.5 53q19 29 29.5 52.5t10.5 51.5q0 40 -25 59t-65 19q-49 0 -77 -25q5 2 16 2q39 0 64.5 -25.5t25.5 -67.5q0 -41 -26 -68t-71 -27q-48 0 -75 31.5t-27 84.5q0 67 45.5 111.5
t126.5 44.5q73 0 119.5 -34.5t46.5 -99.5q0 -34 -9.5 -58.5t-28.5 -58.5q-17 -28 -25 -49t-8 -46v-113q0 -33 19.5 -50.5t56.5 -17.5t56 17.5t19 50.5v449h85zM152.5 441q-12.5 12 -32.5 12t-32.5 -12t-12.5 -32t12.5 -32.5t32.5 -12.5t32.5 12.5t12.5 32.5t-12.5 32z" />
    <glyph glyph-name="uni0E03" unicode="&#xe03;" horiz-adv-x="606"
d="M532 576v-445q0 -68 -41.5 -104.5t-119.5 -36.5t-118.5 36.5t-40.5 104.5v78q0 29 11 54.5t33 64.5t33 64.5t11 55.5q0 24 -10.5 43.5t-27.5 27.5l-59 -55l-63 53q-31 -22 -42 -69q13 5 28 5q41 0 66.5 -26t25.5 -67q0 -42 -27 -68t-69 -26q-47 0 -76 35.5t-29 92.5
q0 69 35 122.5t91 69.5l60 -56l58 56q51 -9 83.5 -45t32.5 -88q0 -40 -11.5 -70.5t-33.5 -69.5q-18 -31 -27 -54t-9 -49v-83q0 -33 19.5 -50.5t56.5 -17.5t56 17.5t19 50.5v449h85zM155 392.5q-13 12.5 -33 12.5t-32 -12.5t-12 -32.5t12 -32.5t32 -12.5t33 12.5t13 32.5
t-13 32.5z" />
    <glyph glyph-name="uni0E04" unicode="&#xe04;" horiz-adv-x="603"
d="M465 534.5q64 -51.5 64 -139.5v-395h-85v387q0 60 -41 95t-112 35q-77 0 -121.5 -39t-44.5 -105q0 -22 5.5 -54.5t7.5 -41.5q3 -12 7 -36q16 74 53.5 119.5t91.5 45.5q44 0 70 -23.5t26 -65.5q0 -40 -25 -65.5t-65 -25.5q-23 0 -44.5 10.5t-32.5 30.5q-20 -31 -34 -77
t-14 -86v-104h-84v143q0 15 -6 42t-13 55q-26 94 -26 137q0 96 67 152.5t182 56.5q110 0 174 -51.5zM263.5 347.5q-11.5 -11.5 -11.5 -30.5t11.5 -31t30.5 -12t30.5 12t11.5 31t-11.5 30.5t-30.5 11.5t-30.5 -11.5z" />
    <glyph glyph-name="uni0E05" unicode="&#xe05;" horiz-adv-x="607"
d="M494 521.5q39 -54.5 39 -134.5v-387h-85v383q0 49 -13 80t-42 50l-101 -75l-105 77q-32 -21 -47 -54t-15 -82q0 -28 14 -106l8 -48q19 68 55 111t89 43q43 0 69.5 -24t26.5 -65q0 -40 -25.5 -65.5t-65.5 -25.5q-22 0 -43.5 11.5t-32.5 32.5q-22 -31 -35.5 -69t-13.5 -76
v-98h-84v143q0 15 -6 42t-13 55q-26 94 -26 138q0 80 40 136.5t113 71.5l97 -77l98 77q65 -10 104 -64.5zM264 320q-12 -12 -12 -30q0 -19 12 -31t31 -12t30.5 12t11.5 31q0 18 -11.5 30t-30.5 12t-31 -12z" />
    <glyph glyph-name="uni0E06" unicode="&#xe06;" horiz-adv-x="638"
d="M564 576v-576h-80q-24 49 -66.5 83t-92.5 49q7 -17 7 -34q0 -47 -32 -77.5t-81 -30.5t-80.5 30.5t-31.5 77.5q0 45 31 74.5t75 30.5v11q0 28 10.5 52.5t31.5 62.5q22 36 33 63t11 56q0 24 -10.5 43.5t-28.5 27.5l-58 -55l-62 53q-31 -22 -42 -69q13 5 28 5q41 0 66.5 -26
t25.5 -67q0 -42 -27 -68t-69 -26q-47 0 -76 35.5t-29 92.5q0 69 35 122.5t91 69.5l59 -56l58 56q50 -9 82.5 -45t32.5 -88q0 -38 -11 -68t-33 -69q-18 -32 -26.5 -53t-8.5 -45v-17q57 -8 105.5 -33t77.5 -61v469h85zM155 392.5q-13 12.5 -33 12.5t-32 -12.5t-12 -32.5
t12 -32.5t32 -12.5t33 12.5t13 32.5t-13 32.5zM251.5 62q13.5 13 13.5 34t-13.5 34.5t-34.5 13.5t-34 -13.5t-13 -34.5t13 -34t34 -13t34.5 13z" />
    <glyph glyph-name="uni0E07" unicode="&#xe07;" horiz-adv-x="454"
d="M349.5 556.5q30.5 -29.5 30.5 -76.5v-480h-84l-275 300l47 51l227 -246v282q-15 -5 -29 -5q-44 0 -72.5 28.5t-28.5 74.5q0 44 30 72.5t76 28.5q48 0 78.5 -29.5zM233.5 450.5q13.5 -13.5 33.5 -13.5q21 0 34 13.5t13 33.5t-13 33.5t-34 13.5q-20 0 -33.5 -13.5
t-13.5 -33.5t13.5 -33.5z" />
    <glyph glyph-name="uni0E08" unicode="&#xe08;" horiz-adv-x="556"
d="M268 13q-32 23 -39 65l-20 121q-16 -8 -35 -8q-42 0 -69.5 26t-27.5 66q0 41 28.5 67t69.5 26q36 0 63 -21.5t32 -54.5l36 -210q2 -15 14.5 -23.5t30.5 -8.5q22 0 34 11.5t12 31.5v320q0 44 -36 70t-97 26q-60 0 -101 -26t-49 -70h-85q7 75 70.5 120t166.5 45
q98 0 157 -43t59 -116v-322q0 -56 -33.5 -85.5t-97.5 -29.5q-51 0 -83 23zM201.5 253q11.5 12 11.5 31t-11.5 30.5t-30.5 11.5t-31 -11.5t-12 -30.5t12 -31t31 -12t30.5 12z" />
    <glyph glyph-name="uni0E09" unicode="&#xe09;" horiz-adv-x="570"
d="M500.5 139.5q16.5 -24.5 16.5 -52.5q0 -43 -28 -70.5t-71 -27.5q-47 0 -76.5 27t-29.5 70v4q-70 -32 -108 -90h-89v129q0 32 13 55q-41 1 -67 27t-26 68q0 41 27.5 67t70.5 26q45 0 72 -25t27 -64q0 -15 -5 -32t-15 -40q-17 -42 -17 -61v-68q40 51 153 93q26 9 44.5 38
t18.5 64v142q0 45 -37.5 71.5t-101.5 26.5q-62 0 -104.5 -26.5t-50.5 -71.5h-85q6 76 71.5 121.5t169.5 45.5q66 0 116.5 -20.5t78.5 -58t28 -86.5v-144q0 -30 -10.5 -56.5t-28.5 -45.5q27 -11 43.5 -35.5zM164 247q12 12 12 31t-12 31t-31 12t-31 -12t-12 -31t12 -31
t31 -12t31 12zM447.5 53.5q12.5 12.5 12.5 33.5q0 20 -12.5 33t-33.5 13q-20 0 -32.5 -13t-12.5 -33q0 -21 12.5 -33.5t32.5 -12.5q21 0 33.5 12.5z" />
    <glyph glyph-name="uni0E0A" unicode="&#xe0a;" horiz-adv-x="606"
d="M532 358v-227q0 -67 -43.5 -104t-123.5 -37q-79 0 -122.5 36.5t-43.5 104.5v111q0 27 9.5 48t28.5 53q19 29 29.5 52.5t10.5 51.5q0 40 -25 59t-65 19q-48 0 -77 -24q5 1 16 1q39 0 64.5 -25.5t25.5 -67.5q0 -41 -26 -68t-71 -27q-48 0 -75 31.5t-27 84.5
q0 67 45.5 111.5t126.5 44.5q72 0 117 -34t45 -100q0 -34 -9 -60t-27 -57q-16 -28 -23.5 -49t-7.5 -46v-113q0 -32 21.5 -50t60.5 -18t60 18t21 50v228q0 31 -13.5 49t-43.5 28v47q39 17 59.5 49t22.5 83h88q-4 -53 -30 -94.5t-57 -58.5q59 -23 59 -100zM152.5 441
q-12.5 12 -32.5 12t-32.5 -12t-12.5 -32t12.5 -32.5t32.5 -12.5t32.5 12.5t12.5 32.5t-12.5 32z" />
    <glyph glyph-name="uni0E0B" unicode="&#xe0b;" horiz-adv-x="616"
d="M542 358v-227q0 -68 -43 -104.5t-123 -36.5q-79 0 -121.5 36.5t-42.5 104.5v78q0 29 10.5 53.5t32.5 65.5q22 39 33 64.5t11 55.5q0 53 -39 71l-58 -55l-62 53q-31 -22 -42 -69q13 5 28 5q41 0 66.5 -26t25.5 -67q0 -42 -27 -68t-69 -26q-47 0 -76 35.5t-29 92.5
q0 69 35 122.5t91 69.5l59 -56l58 56q55 -10 85 -44t30 -89q0 -40 -11 -69.5t-33 -70.5q-17 -32 -26 -55t-9 -48v-83q0 -33 21.5 -50.5t59.5 -17.5q39 0 59.5 17.5t20.5 50.5v228q0 31 -12.5 49t-41.5 28v47q39 16 58 48t21 84h88q-4 -53 -30 -94.5t-57 -58.5
q59 -23 59 -100zM155 392.5q-13 12.5 -33 12.5t-32 -12.5t-12 -32.5t12 -32.5t32 -12.5t33 12.5t13 32.5t-13 32.5z" />
    <glyph glyph-name="uni0E0C" unicode="&#xe0c;" horiz-adv-x="807"
d="M733 576v-576h-77q-18 30 -55.5 59t-79.5 49q1 -5 1 -14q0 -43 -28.5 -73.5t-74.5 -30.5t-76.5 30t-30.5 75q0 36 23.5 64.5t61.5 35.5v185q0 66 -31 101.5t-94 35.5q-51 0 -90 -23t-56 -67q81 -12 117 -51v-17q-36 -11 -58.5 -37.5t-22.5 -66.5v-62q4 1 14 1
q44 0 70.5 -30t26.5 -73t-28.5 -72t-76.5 -29t-76 29t-28 73q0 27 13 49v111q0 39 18.5 68t54.5 44q-42 15 -107 17q4 61 34 107.5t82 72t118 25.5q95 0 149.5 -53t54.5 -145v-196q41 -12 87.5 -36t79.5 -53v473h85zM450 61q13 13 13 34t-13 33.5t-34 12.5t-34 -12.5
t-13 -33.5t13 -34t34 -13t34 13zM203 126q-13 13 -34 13t-33.5 -13t-12.5 -34t12.5 -34t33.5 -13t34 13t13 34t-13 34z" />
    <glyph glyph-name="uni0E0D" unicode="&#xe0d;" horiz-adv-x="830"
d="M756 576v-450q0 -65 -48.5 -100.5t-129.5 -35.5t-129.5 36t-48.5 101v249q0 66 -35 103.5t-99 37.5q-52 0 -88 -24t-52 -67q36 -4 68 -18t49 -32v-18q-38 -11 -59.5 -38.5t-21.5 -64.5v-69q15 5 29 5q45 0 73 -27.5t28 -72.5t-29.5 -73t-76.5 -28q-48 0 -78.5 29.5
t-30.5 76.5v156q0 37 19.5 67t53.5 45q-38 14 -107 17q6 95 65.5 150t162.5 55q101 0 157.5 -54t56.5 -148v-257q0 -32 26 -50t68 -18t67.5 18t25.5 50v449h84zM223.5 124q-13.5 13 -33.5 13q-21 0 -34 -13t-13 -33q0 -21 13 -34t34 -13q20 0 33.5 13t13.5 34q0 20 -13.5 33
zM647 -166q32 40 33 113h76q-2 -96 -53 -152t-144 -56q-50 0 -88.5 16.5t-60 45t-21.5 62.5q0 39 24.5 62.5t62.5 23.5q40 0 64.5 -22t24.5 -60q0 -22 -10.5 -40t-29.5 -27q15 -6 35 -6q55 0 87 40zM450 -161.5q10 -10.5 26 -10.5q18 0 28 10.5t10 27.5t-10 27.5t-28 10.5
q-16 0 -26 -10.5t-10 -27.5t10 -27.5z" />
    <glyph glyph-name="uni0E0E" unicode="&#xe0e;" horiz-adv-x="612"
d="M479.5 532q58.5 -54 58.5 -148v-700h-82q-18 32 -57 62.5t-85 50.5q-11 -53 -42 -84t-84 -31q-48 0 -79.5 24t-31.5 68q0 48 35.5 75.5t98.5 27.5q26 0 58 -8q12 44 45 67l50 -24q-27 -20 -39 -63q37 -16 71 -37.5t58 -44.5v609q0 65 -38 103t-101 38q-53 0 -92 -24
t-55 -67q37 -4 69.5 -18t49.5 -32v-18q-33 -9 -51 -34.5t-18 -58.5q0 -22 9 -69q12 -64 12 -97q0 -49 -30.5 -79t-79.5 -30q-47 0 -76.5 28t-29.5 73t27.5 74t72.5 29q11 0 29 -4q-12 39 -12 72t14.5 61t39.5 41q-37 14 -109 17q4 60 33.5 106.5t81.5 72.5t121 26
q100 0 158.5 -54zM159.5 58.5q13.5 13.5 13.5 33.5t-13.5 33.5t-33.5 13.5t-33.5 -13.5t-13.5 -33.5t13.5 -33.5t33.5 -13.5t33.5 13.5zM232.5 -243.5q16.5 22.5 25.5 61.5q-33 7 -51 7q-29 0 -48 -12t-19 -35q0 -21 12 -32.5t36 -11.5q28 0 44.5 22.5z" />
    <glyph glyph-name="uni0E0F" unicode="&#xe0f;" horiz-adv-x="612"
d="M479.5 532q58.5 -54 58.5 -148v-700h-81l-77 92l-61 -92q-46 59 -68 82q-9 -42 -37 -65.5t-69 -23.5q-48 0 -76 26t-28 69q0 46 30.5 72t79.5 26q23 0 49 -7q11 48 61 77l48 -28q-47 -31 -54 -78q31 -23 62 -66l58 84l79 -86v610q0 65 -38 103t-101 38q-53 0 -92 -24
t-55 -67q37 -4 69.5 -18t49.5 -32v-18q-33 -9 -51 -34.5t-18 -58.5q0 -22 9 -69q12 -64 12 -97q0 -49 -30.5 -79t-79.5 -30q-47 0 -76.5 28t-29.5 73t27.5 74t72.5 29q11 0 29 -4q-12 39 -12 72t14.5 61t39.5 41q-37 14 -109 17q4 60 33.5 106.5t81.5 72.5t121 26
q100 0 158.5 -54zM159.5 58.5q13.5 13.5 13.5 33.5t-13.5 33.5t-33.5 13.5t-33.5 -13.5t-13.5 -33.5t13.5 -33.5t33.5 -13.5t33.5 13.5zM183 -251q13 18 14 58q-23 10 -44 10q-25 0 -39.5 -12t-14.5 -33q0 -20 11.5 -30.5t32.5 -10.5q27 0 40 18z" />
    <glyph glyph-name="uni0E10" unicode="&#xe10;" horiz-adv-x="539"
d="M438.5 371q22.5 -25 22.5 -55v-198q0 -60 -39.5 -94t-107.5 -34t-106.5 34t-38.5 94v51q-14 -2 -22 -2q-40 0 -66.5 26t-26.5 68q0 41 27.5 67t72.5 26t71 -26.5t26 -70.5v-137q0 -29 16.5 -45t45.5 -16q30 0 46.5 16t16.5 45v178q0 36 -47 55q-38 16 -123 33.5
t-168 25.5q1 81 44 127.5t112 46.5q38 0 128 -22q52 -13 63 -13q16 0 26.5 10.5t13.5 27.5l63 -14q-8 -43 -33.5 -66.5t-63.5 -23.5q-24 0 -94 19q-6 2 -42.5 10.5t-56.5 8.5q-26 0 -44.5 -15.5t-23.5 -40.5q68 -9 137.5 -24.5t105.5 -29.5q43 -17 65.5 -42zM119 230.5
q12 -11.5 31 -11.5t30.5 11.5t11.5 30.5t-11.5 30.5t-30.5 11.5t-31 -11.5t-12 -30.5t12 -30.5zM436.5 -91.5q22.5 -19.5 22.5 -49.5v-169h-75l-57 38l-69 -39q-37 52 -66 77q-13 -39 -36.5 -60.5t-69.5 -21.5q-40 0 -64.5 22.5t-24.5 56.5q0 38 30.5 60t79.5 22q23 0 49 -7
q6 33 17 55.5t33 34.5l49 -28q-19 -12 -29.5 -33t-19.5 -55q18 -13 33 -29t33 -38l59 31l58 -38v54q-2 -1 -15 -1q-32 0 -52.5 19.5t-20.5 49.5t21.5 49t56.5 19t57.5 -19.5zM390 -162q8 9 8 22t-8 21.5t-20 8.5q-13 0 -21 -8.5t-8 -21.5q0 -14 8 -22.5t21 -8.5q12 0 20 9z
M128.5 -249.5q11.5 14.5 18.5 41.5q-20 6 -39 6q-24 0 -38 -8t-14 -24q0 -13 10 -21.5t27 -8.5q24 0 35.5 14.5z" />
    <glyph glyph-name="uni0E11" unicode="&#xe11;" horiz-adv-x="708"
d="M634 470v-470h-85v480q0 36 -26 36q-13 0 -20.5 -8.5t-13.5 -24.5l-182 -483h-95v209q0 31 11.5 61t32.5 71q20 41 29 64.5t9 47.5q0 48 -39 66l-54 -55l-61 53q-31 -22 -42 -69q13 5 28 5q41 0 66.5 -26t25.5 -67q0 -42 -27 -68t-69 -26q-47 0 -76 35.5t-29 92.5
q0 69 35 122.5t91 69.5l60 -56l58 56q55 -10 82.5 -43.5t27.5 -89.5q0 -33 -10.5 -61.5t-29.5 -65.5q-17 -33 -26 -58t-9 -51q0 -65 -6 -119l33 122l100 275q16 44 42.5 67.5t68.5 23.5q100 0 100 -116zM155 392.5q-13 12.5 -33 12.5t-32 -12.5t-12 -32.5t12 -32.5t32 -12.5
t33 12.5t13 32.5t-13 32.5z" />
    <glyph glyph-name="uni0E12" unicode="&#xe12;" horiz-adv-x="831"
d="M757 576v-576h-79q-14 30 -48.5 62t-75.5 50q1 -7 1 -20q0 -43 -29 -72.5t-75 -29.5q-47 0 -76.5 29.5t-29.5 73.5q0 36 23.5 64t61.5 37v189q0 46 -13.5 78t-42.5 52l-90 -75l-97 77q-30 -21 -46 -57t-16 -79q0 -23 5.5 -51t16.5 -75q11 -43 16.5 -72t6.5 -54
q14 18 54 52q4 4 19.5 17t23.5 24q-32 4 -52 27t-20 57q0 38 25.5 63t65.5 25t65.5 -25.5t25.5 -65.5q0 -38 -25 -70.5t-75 -77.5q-50 -46 -76 -79.5t-29 -73.5h-82v129q0 15 -6.5 43.5t-14.5 58.5q-13 50 -20 85.5t-7 61.5q0 45 18 89t53 76.5t82 42.5l90 -78l86 78
q62 -10 102 -66.5t40 -132.5v-196q42 -10 85 -33.5t74 -54.5v473h85zM256 273.5q12 -11.5 31 -11.5t31 11.5t12 30.5t-12 31t-31 12t-31 -12t-12 -31t12 -30.5zM482 61q13 13 13 34q0 20 -13 33t-33 13q-21 0 -34 -13t-13 -33q0 -21 13 -34t34 -13q20 0 33 13z" />
    <glyph glyph-name="uni0E13" unicode="&#xe13;" horiz-adv-x="831"
d="M767.5 151q17.5 -24 17.5 -54q0 -48 -29.5 -77.5t-75.5 -29.5t-74.5 29t-28.5 74q-59 -30 -96 -93h-86v380q0 66 -30.5 101.5t-91.5 35.5q-53 0 -92 -24t-55 -67q37 -5 67.5 -17.5t49.5 -32.5v-18q-36 -11 -58.5 -37t-22.5 -66v-68q18 4 29 4q45 0 73 -27.5t28 -72.5
t-29.5 -73t-76.5 -28q-48 0 -78.5 29.5t-30.5 76.5v156q0 39 18.5 67.5t54.5 44.5q-37 13 -107 17q4 61 34.5 107.5t82 72t117.5 25.5q95 0 148 -52t53 -146v-295q36 42 95 70q35 18 55.5 32t32.5 35.5t12 53.5v292h84v-295q0 -31 -10 -56t-28 -39q31 -11 48.5 -35z
M713.5 58.5q13.5 13.5 13.5 33.5t-13.5 33.5t-33.5 13.5t-33.5 -13.5t-13.5 -33.5t13.5 -33.5t33.5 -13.5t33.5 13.5zM223.5 124q-13.5 13 -33.5 13q-21 0 -34 -13t-13 -33q0 -21 13 -34t34 -13q20 0 33.5 13t13.5 34q0 20 -13.5 33z" />
    <glyph glyph-name="uni0E14" unicode="&#xe14;" horiz-adv-x="592"
d="M456 532q62 -54 62 -148v-384h-85v377q0 67 -39.5 103.5t-107.5 36.5q-52 0 -88 -20t-54 -51t-18 -65q0 -22 5.5 -48t16.5 -70q10 -40 15 -65t5 -45v-19q21 31 77 80l23 22q-34 5 -54.5 29t-20.5 58q0 38 25.5 63t65.5 25q39 0 65 -25.5t26 -65.5q0 -38 -23.5 -71
t-71.5 -81q-50 -49 -76.5 -86t-31.5 -82h-84v140q0 22 -19 98q-13 48 -20 82.5t-7 61.5q0 56 29 102.5t84.5 74t130.5 27.5q108 0 170 -54zM253 292q12 -12 31 -12t30.5 12t11.5 31t-11.5 30.5t-30.5 11.5t-31 -11.5t-12 -30.5t12 -31z" />
    <glyph glyph-name="uni0E15" unicode="&#xe15;" horiz-adv-x="607"
d="M494 521.5q39 -54.5 39 -134.5v-387h-85v383q0 49 -13 80t-42 50l-101 -75l-105 77q-32 -21 -47 -54t-15 -82q0 -22 5.5 -49t16.5 -67q10 -39 15.5 -64.5t5.5 -45.5v-32q15 21 36.5 41t68.5 61q-33 4 -53.5 27.5t-20.5 57.5q0 38 25.5 63t65.5 25q39 0 65 -25.5t26 -65.5
q0 -37 -24 -68t-74 -76q-52 -47 -79.5 -82t-31.5 -79h-84v140q0 22 -19 96q-13 47 -20 81t-7 61q0 80 40 136.5t113 71.5l97 -77l98 77q65 -10 104 -64.5zM259 277q12 -12 31 -12t30.5 12t11.5 31q0 18 -11.5 30t-30.5 12t-31 -12t-12 -30q0 -19 12 -31z" />
    <glyph glyph-name="uni0E16" unicode="&#xe16;" horiz-adv-x="581"
d="M447 531q60 -55 60 -147v-384h-84v376q0 64 -39 102.5t-104 38.5q-54 0 -96 -24.5t-58 -66.5q36 -4 68 -18t49 -32v-18q-38 -11 -59.5 -38.5t-21.5 -64.5v-68q18 4 29 4q45 0 73 -27.5t28 -72.5t-29.5 -73t-76.5 -28q-48 0 -78.5 29.5t-30.5 76.5v156q0 37 19.5 67
t53.5 45q-40 14 -107 17q4 61 35.5 107.5t85 72t122.5 25.5q101 0 161 -55zM223.5 124q-13.5 13 -33.5 13q-21 0 -34 -13t-13 -33q0 -21 13 -34t34 -13q20 0 33.5 13t13.5 34q0 20 -13.5 33z" />
    <glyph glyph-name="uni0E17" unicode="&#xe17;" horiz-adv-x="657"
d="M583 463v-463h-85v462q0 51 -33 51q-16 0 -24.5 -7.5t-14.5 -22.5l-184 -483h-89v387q-15 -5 -29 -5q-44 0 -72.5 28.5t-28.5 74.5q0 44 30 72.5t76 28.5q48 0 78.5 -29.5t30.5 -76.5v-262q0 -40 -8 -102l28 106l101 274q33 90 117 90q107 0 107 -123zM91.5 450.5
q13.5 -13.5 33.5 -13.5q21 0 34 13.5t13 33.5t-13 33.5t-34 13.5q-20 0 -33.5 -13.5t-13.5 -33.5t13.5 -33.5z" />
    <glyph glyph-name="uni0E18" unicode="&#xe18;" horiz-adv-x="542"
d="M128 24q-52 34 -52 95v206h84v-205q0 -29 29 -45t83 -16q53 0 82 16t29 45v172q0 21 -13.5 35.5t-49.5 25.5q-42 13 -121.5 27.5t-151.5 20.5q1 88 45.5 136.5t116.5 48.5q26 0 53.5 -5.5t68.5 -16.5q4 -1 29 -7.5t39 -6.5q34 0 43 37l63 -15q-12 -43 -36.5 -66
t-58.5 -23q-26 0 -92 17q-6 1 -41 9t-57 8q-30 0 -51.5 -16t-25.5 -44q71 -8 139 -22.5t104 -28.5q82 -32 82 -95v-192q0 -61 -52 -95t-144 -34t-144 34z" />
    <glyph glyph-name="uni0E19" unicode="&#xe19;" horiz-adv-x="637"
d="M573 151q18 -24 18 -54q0 -48 -30 -77.5t-76 -29.5q-45 0 -74 29t-29 75v4q-41 -16 -79 -42t-61 -56h-89v387q-15 -5 -29 -5q-44 0 -72.5 28.5t-28.5 74.5q0 44 30 72.5t76 28.5q48 0 78.5 -29.5t30.5 -76.5v-396q27 29 111 69q55 26 82 45t37 38.5t10 47.5v292h85v-295
q0 -31 -10 -56t-29 -39q31 -11 49 -35zM91.5 450.5q13.5 -13.5 33.5 -13.5q21 0 34 13.5t13 33.5t-13 33.5t-34 13.5q-20 0 -33.5 -13.5t-13.5 -33.5t13.5 -33.5zM519 58.5q13 13.5 13 33.5t-13 33.5t-34 13.5q-20 0 -33 -13.5t-13 -33.5t13 -33.5t33 -13.5q21 0 34 13.5z
" />
    <glyph glyph-name="uni0E1A" unicode="&#xe1a;" horiz-adv-x="645"
d="M571 576v-451q0 -63 -55.5 -99t-153.5 -36t-153.5 36t-55.5 99v262q-15 -5 -29 -5q-44 0 -72.5 28.5t-28.5 74.5q0 44 30 72.5t76 28.5q48 0 78.5 -29.5t30.5 -76.5v-346q0 -35 33 -55t91 -20t91 20t33 55v442h85zM91.5 450.5q13.5 -13.5 33.5 -13.5q21 0 34 13.5
t13 33.5t-13 33.5t-34 13.5q-20 0 -33.5 -13.5t-13.5 -33.5t13.5 -33.5z" />
    <glyph glyph-name="uni0E1B" unicode="&#xe1b;" horiz-adv-x="655"
d="M581 813v-688q0 -63 -56.5 -99t-157.5 -36q-98 0 -156 36t-58 99v262q-15 -5 -29 -5q-44 0 -72.5 28.5t-28.5 74.5q0 44 30 72.5t76 28.5q48 0 78.5 -29.5t30.5 -76.5v-346q0 -34 35.5 -54.5t93.5 -20.5q61 0 95 20t34 55v679h85zM91.5 450.5q13.5 -13.5 33.5 -13.5
q21 0 34 13.5t13 33.5t-13 33.5t-34 13.5q-20 0 -33.5 -13.5t-13.5 -33.5t13.5 -33.5z" />
    <glyph glyph-name="uni0E1C" unicode="&#xe1c;" horiz-adv-x="622"
d="M548 576v-576h-89l-150 223l-151 -223h-88v480q0 47 30 76.5t78 29.5q47 0 76.5 -28.5t29.5 -72.5q0 -46 -28 -74.5t-73 -28.5q-12 0 -28 4v-267l124 178h60l124 -178v457h85zM148 517.5q-13 -13.5 -13 -33.5t13 -33.5t34 -13.5t34 13.5t13 33.5t-13 33.5t-34 13.5
t-34 -13.5z" />
    <glyph glyph-name="uni0E1D" unicode="&#xe1d;" horiz-adv-x="622"
d="M548 813v-813h-89l-150 223l-151 -223h-88v480q0 47 30 76.5t78 29.5q47 0 76.5 -28.5t29.5 -72.5q0 -46 -28 -74.5t-73 -28.5q-12 0 -28 4v-267l124 178h60l124 -178v694h85zM148 517.5q-13 -13.5 -13 -33.5t13 -33.5t34 -13.5t34 13.5t13 33.5t-13 33.5t-34 13.5
t-34 -13.5z" />
    <glyph glyph-name="uni0E1E" unicode="&#xe1e;" horiz-adv-x="720"
d="M646 576v-576h-93l-153 472l-153 -472h-93v387q-15 -5 -30 -5q-44 0 -72.5 28.5t-28.5 74.5q0 44 30 72.5t76 28.5q48 0 78.5 -29.5t30.5 -76.5v-266q0 -25 -5 -82l21 86l112 354h69l111 -354l21 -86q-5 57 -5 82v362h84zM91.5 450.5q13.5 -13.5 33.5 -13.5q21 0 34 13.5
t13 33.5t-13 33.5t-34 13.5q-20 0 -33.5 -13.5t-13.5 -33.5t13.5 -33.5z" />
    <glyph glyph-name="uni0E1F" unicode="&#xe1f;" horiz-adv-x="720"
d="M646 813v-813h-93l-153 472l-153 -472h-93v387q-15 -5 -30 -5q-44 0 -72.5 28.5t-28.5 74.5q0 44 30 72.5t76 28.5q48 0 78.5 -29.5t30.5 -76.5v-266q0 -25 -5 -82l21 86l112 354h69l111 -354l21 -86q-5 57 -5 82v599h84zM91.5 450.5q13.5 -13.5 33.5 -13.5q21 0 34 13.5
t13 33.5t-13 33.5t-34 13.5q-20 0 -33.5 -13.5t-13.5 -33.5t13.5 -33.5z" />
    <glyph glyph-name="uni0E20" unicode="&#xe20;" horiz-adv-x="616"
d="M482.5 532q59.5 -54 59.5 -148v-384h-85v376q0 65 -38.5 103t-102.5 38q-52 0 -92 -24.5t-56 -66.5q37 -4 69.5 -18t49.5 -32v-18q-33 -9 -51 -34.5t-18 -58.5q0 -22 9 -69q12 -64 12 -97q0 -49 -30.5 -79t-79.5 -30q-47 0 -76.5 28t-29.5 73t27.5 74t72.5 29q11 0 29 -4
q-12 39 -12 72t14.5 61t39.5 41q-37 14 -109 17q4 60 34 106.5t82.5 72.5t120.5 26q101 0 160.5 -54zM159.5 58.5q13.5 13.5 13.5 33.5t-13.5 33.5t-33.5 13.5t-33.5 -13.5t-13.5 -33.5t13.5 -33.5t33.5 -13.5t33.5 13.5z" />
    <glyph glyph-name="uni0E21" unicode="&#xe21;" horiz-adv-x="614"
d="M540 576v-576h-80q-43 38 -96 67.5t-99 43.5q1 -4 1 -12q0 -48 -32 -78.5t-81 -30.5t-79.5 30.5t-30.5 77.5t31 76.5t81 29.5q7 0 11 -1v184q-15 -5 -29 -5q-44 0 -72 28.5t-28 74.5q0 44 29.5 72.5t76.5 28.5q48 0 78 -29.5t30 -76.5v-291q57 -17 111 -44t93 -56v487h85
zM105 450.5q13 -13.5 33 -13.5q21 0 34.5 13.5t13.5 33.5t-13.5 33.5t-34.5 13.5q-20 0 -33 -13.5t-13 -33.5t13 -33.5zM186 61.5q14 13.5 14 35.5q0 21 -14 34.5t-36 13.5q-21 0 -34.5 -13.5t-13.5 -34.5q0 -22 13.5 -35.5t34.5 -13.5q22 0 36 13.5z" />
    <glyph glyph-name="uni0E22" unicode="&#xe22;" horiz-adv-x="572"
d="M498 576v-438q0 -69 -58.5 -108.5t-159.5 -39.5t-159.5 39.5t-58.5 108.5v66q0 33 17 59.5t49 41.5q-38 17 -56.5 54.5t-18.5 83.5q0 65 34.5 104t92.5 39q46 0 73 -25t27 -67q0 -41 -25 -65t-68 -24q-34 0 -54 16q1 -36 22.5 -59.5t52.5 -23.5h94v-68h-95q-26 0 -43 -18
t-17 -48v-60q0 -40 35.5 -62.5t97.5 -22.5t97.5 22.5t35.5 62.5v432h85zM153.5 527q-12.5 -12 -12.5 -32q0 -19 12.5 -31.5t31.5 -12.5q20 0 32 12.5t12 31.5q0 20 -12 32t-32 12q-19 0 -31.5 -12z" />
    <glyph glyph-name="uni0E23" unicode="&#xe23;" horiz-adv-x="484"
d="M145.5 501.5q-18.5 -15.5 -20.5 -44.5q112 -14 190 -49t78 -87v-225q0 -47 -30.5 -76.5t-78.5 -29.5q-47 0 -76.5 28.5t-29.5 72.5q0 46 28 74.5t73 28.5q14 0 29 -5v121q0 28 -74 52.5t-200 40.5q1 88 39.5 135.5t105.5 47.5q25 0 48 -5t63 -16q43 -13 56 -13
q12 0 22 10t14 28l64 -18q-12 -42 -35 -65t-53 -23q-14 0 -36 5t-45 11q-6 2 -36.5 9.5t-51.5 7.5q-25 0 -43.5 -15.5zM314 58.5q13 13.5 13 33.5t-13 33.5t-34 13.5t-34 -13.5t-13 -33.5t13 -33.5t34 -13.5t34 13.5z" />
    <glyph glyph-name="uni0E24" unicode="&#xe24;" horiz-adv-x="581"
d="M447 531q60 -55 60 -147v-634h-84v626q0 64 -39 102.5t-104 38.5q-54 0 -96 -24.5t-58 -66.5q36 -4 68 -18t49 -32v-18q-38 -11 -59.5 -38.5t-21.5 -64.5v-68q18 4 29 4q45 0 73 -27.5t28 -72.5t-29.5 -73t-76.5 -28q-48 0 -78.5 29.5t-30.5 76.5v156q0 37 19.5 67
t53.5 45q-40 14 -107 17q4 61 35.5 107.5t85 72t122.5 25.5q101 0 161 -55zM223.5 124q-13.5 13 -33.5 13q-21 0 -34 -13t-13 -33q0 -21 13 -34t34 -13q20 0 33.5 13t13.5 34q0 20 -13.5 33z" />
    <glyph glyph-name="uni0E25" unicode="&#xe25;" horiz-adv-x="580"
d="M444 539.5q62 -46.5 62 -125.5v-414h-84v235q0 45 -43 71t-96 26t-89 -25.5t-36 -70.5v-47q15 5 29 5q44 0 72 -28.5t28 -74.5q0 -44 -29.5 -72.5t-76.5 -28.5q-48 0 -78 29.5t-30 76.5v140q0 50 27 86t73.5 55.5t103.5 19.5q40 0 79 -13t66 -41v74q0 46 -39.5 73
t-106.5 27q-64 0 -107 -26t-52 -70h-82q7 76 72 120.5t169 44.5q106 0 168 -46.5zM219 125.5q-13 13.5 -33 13.5q-21 0 -34.5 -13.5t-13.5 -33.5t13.5 -33.5t34.5 -13.5q20 0 33 13.5t13 33.5t-13 33.5z" />
    <glyph glyph-name="uni0E26" unicode="&#xe26;" horiz-adv-x="612"
d="M479.5 532q58.5 -54 58.5 -148v-634h-84v626q0 65 -38 103t-101 38q-53 0 -92 -24t-55 -67q37 -4 69.5 -18t49.5 -32v-18q-33 -9 -51 -34.5t-18 -58.5q0 -22 9 -69q12 -64 12 -97q0 -49 -30.5 -79t-79.5 -30q-47 0 -76.5 28t-29.5 73t27.5 74t72.5 29q11 0 29 -4
q-12 39 -12 72t14.5 61t39.5 41q-37 14 -109 17q4 60 33.5 106.5t81.5 72.5t121 26q100 0 158.5 -54zM159.5 58.5q13.5 13.5 13.5 33.5t-13.5 33.5t-33.5 13.5t-33.5 -13.5t-13.5 -33.5t13.5 -33.5t33.5 -13.5t33.5 13.5z" />
    <glyph glyph-name="uni0E27" unicode="&#xe27;" horiz-adv-x="512"
d="M383 539q55 -47 55 -127v-316q0 -47 -30.5 -76.5t-78.5 -29.5q-47 0 -76.5 28.5t-29.5 72.5q0 46 28 74.5t73 28.5q14 0 29 -5v215q0 53 -32 83t-89 30q-51 0 -86.5 -28t-42.5 -74h-85q7 79 66 125t150 46q94 0 149 -47zM359 58.5q13 13.5 13 33.5t-13 33.5t-34 13.5
t-34 -13.5t-13 -33.5t13 -33.5t34 -13.5t34 13.5z" />
    <glyph glyph-name="uni0E28" unicode="&#xe28;" horiz-adv-x="602"
d="M480 520q48 -50 48 -125v-395h-84v387q0 42 -22 75q-37 -32 -85 -65q23 -10 36 -30.5t13 -49.5q0 -40 -25 -65.5t-65 -25.5q-23 0 -44.5 10.5t-32.5 30.5q-20 -31 -34 -77t-14 -86v-104h-84v143q0 15 -6 42t-13 55q-26 94 -26 137q0 96 66.5 152.5t181.5 56.5
q75 0 131 -25q22 39 26 71h97q-11 -51 -64 -112zM374 500q-36 17 -84 17q-76 0 -120.5 -39t-44.5 -105q0 -25 6.5 -61.5t8.5 -45.5l6 -28q13 64 43 108.5t74 56.5q65 46 111 97zM324.5 286q11.5 12 11.5 31t-11.5 30.5t-30.5 11.5t-30.5 -11.5t-11.5 -30.5t11.5 -31
t30.5 -12t30.5 12z" />
    <glyph glyph-name="uni0E29" unicode="&#xe29;" horiz-adv-x="677"
d="M645.5 299q-25.5 -27 -58.5 -45v-129q0 -64 -56 -99.5t-160 -35.5q-99 0 -158.5 36t-59.5 99v262q-15 -5 -29 -5q-44 0 -72.5 28.5t-28.5 74.5q0 44 30 72.5t76 28.5q48 0 78.5 -29.5t30.5 -76.5v-346q0 -35 36.5 -55t96.5 -20q64 0 97.5 19.5t33.5 55.5v88
q-32 -4 -48 -4q-50 0 -89.5 16.5t-61.5 45.5t-22 66t24.5 61t62.5 24q39 0 62.5 -22.5t23.5 -59.5q0 -21 -9.5 -40t-24.5 -28q15 -6 35 -6q25 0 47 6v295h85v-251q38 32 57 71l43 -37q-16 -33 -41.5 -60zM91.5 450.5q13.5 -13.5 33.5 -13.5q21 0 34 13.5t13 33.5t-13 33.5
t-34 13.5q-20 0 -33.5 -13.5t-13.5 -33.5t13.5 -33.5zM394 318.5q11 11.5 11 28.5t-10.5 27.5t-27.5 10.5q-16 0 -27 -10.5t-11 -27.5t11 -28.5t27 -11.5t27 11.5z" />
    <glyph glyph-name="uni0E2A" unicode="&#xe2a;" horiz-adv-x="580"
d="M465 521q41 -44 41 -107v-414h-84v228q0 45 -43 71t-96 26t-89 -25.5t-36 -70.5v-40q15 5 29 5q44 0 72 -28.5t28 -74.5q0 -44 -29.5 -72.5t-76.5 -28.5q-48 0 -78 29.5t-30 76.5v133q0 62 42 103.5t110 53.5q82 60 134 117q-36 14 -83 14q-64 0 -107 -26t-52 -70h-82
q7 76 72 120.5t169 44.5q74 0 130 -25q25 39 30 71h97q-12 -48 -68 -111zM422 417q0 26 -14 48q-44 -40 -97 -77q70 -9 111 -51v80zM219 125.5q-13 13.5 -33 13.5q-21 0 -34.5 -13.5t-13.5 -33.5t13.5 -33.5t34.5 -13.5q20 0 33 13.5t13 33.5t-13 33.5z" />
    <glyph glyph-name="uni0E2B" unicode="&#xe2b;" horiz-adv-x="636"
d="M569 434.5q-12 -22.5 -33 -35.5q26 -31 26 -85v-314h-85v314q0 46 -26 46q-21 0 -43 -38l-180 -322h-75v387q-15 -5 -29 -5q-44 0 -72.5 28.5t-28.5 74.5q0 44 30 72.5t76 28.5q48 0 78.5 -29.5t30.5 -76.5v-271q0 -33 -4 -58.5t-5 -31.5l130 238q23 40 48 52
q-15 14 -23 33.5t-8 42.5q0 44 28.5 72.5t73.5 28.5t74 -28.5t29 -72.5q0 -28 -12 -50.5zM91.5 450.5q13.5 -13.5 33.5 -13.5q21 0 34 13.5t13 33.5t-13 33.5t-34 13.5q-20 0 -33.5 -13.5t-13.5 -33.5t13.5 -33.5zM445 517.5q-13 -13.5 -13 -33.5t13 -33.5t33 -13.5
q21 0 34 13.5t13 33.5t-13 33.5t-34 13.5q-20 0 -33 -13.5z" />
    <glyph glyph-name="uni0E2C" unicode="&#xe2c;" horiz-adv-x="720"
d="M638 545q8 -21 8 -43v-502h-95l-151 281l-151 -281h-95v387q-15 -5 -30 -5q-44 0 -72.5 28.5t-28.5 74.5q0 44 30 72.5t76 28.5q48 0 78.5 -29.5t30.5 -76.5v-279q0 -31 -5 -88l136 251h63l135 -251q-5 57 -5 88v208q-15 -5 -29 -5q-45 0 -73 28.5t-28 74.5
q0 44 29.5 72.5t76.5 28.5q25 0 50 -10q15 15 18 43h89q-12 -58 -57 -96zM500 472.5q13 -13.5 34 -13.5t34 13.5t13 33.5t-13 33.5t-34 13.5t-34 -13.5t-13 -33.5t13 -33.5zM91.5 450.5q13.5 -13.5 33.5 -13.5q21 0 34 13.5t13 33.5t-13 33.5t-34 13.5q-20 0 -33.5 -13.5
t-13.5 -33.5t13.5 -33.5z" />
    <glyph glyph-name="uni0E2D" unicode="&#xe2d;" horiz-adv-x="587"
d="M451 539q62 -47 62 -125v-282q0 -67 -55 -104.5t-154 -37.5t-153 37.5t-54 104.5v160q0 46 30 75.5t77 29.5t76.5 -28t29.5 -73t-28 -73t-72 -28q-13 0 -29 4v-59q0 -39 33.5 -60t92.5 -21t90 22t31 62v271q0 47 -39.5 75t-104.5 28q-63 0 -106.5 -26t-52.5 -70h-82
q8 76 74.5 120.5t168.5 44.5q103 0 165 -47zM175 329q-13 -13 -13 -33t13 -33t34 -13q20 0 33 13t13 33t-13 33t-33 13q-21 0 -34 -13z" />
    <glyph glyph-name="uni0E2E" unicode="&#xe2e;" horiz-adv-x="565"
d="M478 468q10 -32 10 -61v-271q0 -70 -55.5 -108t-155.5 -38q-101 0 -156.5 38.5t-55.5 107.5v124q0 47 30 76.5t77 29.5t76.5 -28.5t29.5 -72.5q0 -45 -28 -73t-72 -28q-13 0 -29 4v-28q0 -39 34 -60t94 -21q62 0 94 22t32 63v261v13q-70 -30 -165 -30q-84 0 -134.5 24.5
t-50.5 70.5q0 47 56 75t146 28q59 0 105.5 -15t76.5 -43q17 26 18 61h80q-7 -73 -57 -121zM383 479q-36 49 -133 49q-54 0 -87 -12.5t-33 -31.5q0 -17 28 -25.5t76 -8.5q92 0 149 29zM143 298q-13 -13 -13 -33q0 -21 13 -34t34 -13q20 0 33 13t13 34q0 20 -13 33t-33 13
q-21 0 -34 -13z" />
    <glyph glyph-name="uni0E2F" unicode="&#xe2f;" horiz-adv-x="546"
d="M448 552.5q24 -23.5 24 -67.5v-485h-85v470q0 35 -33 36q-29 -65 -80.5 -103t-114.5 -38q-60 0 -97 32t-37 84q0 47 30 76t77 29t76.5 -28.5t29.5 -72.5q0 -22 -11 -42q35 16 57 50.5t30 82.5h66q44 0 68 -23.5zM164.5 450.5q13.5 13.5 13.5 33.5t-13.5 33.5t-33.5 13.5
t-33.5 -13.5t-13.5 -33.5t13.5 -33.5t33.5 -13.5t33.5 13.5z" />
    <glyph glyph-name="uni0E30" unicode="&#xe30;" horiz-adv-x="534"
d="M140.5 340.5q-43.5 16.5 -69.5 46.5t-26 69q0 45 30.5 74.5t75.5 29.5q44 0 74 -29.5t30 -74.5q0 -41 -32 -66q6 -1 14 -1q72 0 110.5 46t40.5 129h84q-2 -69 -30 -123.5t-80 -85.5t-125 -31q-53 0 -96.5 16.5zM183 427q12 12 12 32q0 21 -12 33t-33 12q-20 0 -32 -12
t-12 -33q0 -20 12 -32t32 -12q21 0 33 12zM140.5 35.5q-43.5 16.5 -69.5 46.5t-26 69q0 45 30.5 74.5t75.5 29.5q44 0 74 -29.5t30 -74.5q0 -41 -32 -67q6 -1 14 -1q73 3 111 48.5t40 127.5h84q-2 -69 -30 -123.5t-80 -85.5t-125 -31q-53 0 -96.5 16.5zM183 121.5
q12 12.5 12 32.5t-12 32.5t-33 12.5q-20 0 -32 -12.5t-12 -32.5t12 -32.5t32 -12.5q21 0 33 12.5z" />
    <glyph glyph-name="uni0E31" unicode="&#xe31;"
d="M76 919q-1 -72 -33 -126.5t-88.5 -84t-128.5 -29.5q-57 0 -100.5 17t-67.5 47.5t-24 68.5q0 42 28 69t71 27t71 -27t28 -70q0 -23 -8.5 -42.5t-23.5 -32.5q9 -1 26 -1q81 0 128.5 51.5t48.5 132.5h73zM-300.5 780q13.5 -13 33.5 -13t33 13t13 33q0 19 -13 32t-33 13
t-33.5 -13t-13.5 -32q0 -20 13.5 -33z" />
    <glyph glyph-name="uni0E32" unicode="&#xe32;" horiz-adv-x="485"
d="M326 426q0 42 -27.5 66.5t-75.5 24.5q-50 0 -80 -28t-30 -76h-83q0 80 52 126.5t141 46.5q87 0 137.5 -42.5t50.5 -115.5v-428h-85v426z" />
    <glyph glyph-name="uni0E33" unicode="&#xe33;" horiz-adv-x="485"
d="M-206.5 698.5q-32.5 32.5 -32.5 82.5t32.5 82.5t84.5 32.5t85 -32.5t33 -82.5t-33 -82.5t-85 -32.5t-84.5 32.5zM-77 735.5q17 17.5 17 45.5t-17 45.5t-45 17.5q-27 0 -44 -17.5t-17 -45.5t17 -45.5t44 -17.5q28 0 45 17.5zM326 426q0 42 -27.5 66.5t-75.5 24.5
q-50 0 -80 -28t-30 -76h-83q0 80 52 126.5t141 46.5q87 0 137.5 -42.5t50.5 -115.5v-428h-85v426z" />
    <glyph glyph-name="uni0E34" unicode="&#xe34;"
d="M-234.5 706.5q-94.5 15.5 -183.5 15.5q-62 0 -105 -7q5 83 63 132t152 49q104 0 167.5 -61.5t73.5 -172.5q-73 29 -167.5 44.5zM-209 814q-43 27 -99 27q-50 0 -86 -20t-48 -52q19 2 60 2q63 0 127 -10t112 -28q-23 54 -66 81z" />
    <glyph glyph-name="uni0E35" unicode="&#xe35;"
d="M-67 662q-73 29 -167.5 44.5t-183.5 15.5q-62 0 -105 -7q5 83 63 132t152 49q98 0 161 -55v111h72v-239q4 -17 8 -51zM-255 761q64 -10 112 -28q-23 54 -66 81t-99 27q-50 0 -86 -20t-48 -52q19 2 60 2q63 0 127 -10z" />
    <glyph glyph-name="uni0E36" unicode="&#xe36;"
d="M-51.5 813q-20.5 -22 -53.5 -24q32 -54 38 -127q-73 29 -167.5 44.5t-183.5 15.5q-62 0 -105 -7q5 83 63 132t152 49q66 0 115 -25q2 34 24 55t57 21q36 0 58.5 -22t22.5 -57q0 -33 -20.5 -55zM-85.5 841.5q10.5 10.5 10.5 26.5t-10.5 26.5t-26.5 10.5t-26.5 -10.5
t-10.5 -26.5t10.5 -26.5t26.5 -10.5t26.5 10.5zM-255 761q64 -10 112 -28q-23 54 -66 81t-99 27q-50 0 -86 -20t-48 -52q19 2 60 2q63 0 127 -10z" />
    <glyph glyph-name="uni0E37" unicode="&#xe37;"
d="M-67 662q-73 29 -167.5 44.5t-183.5 15.5q-62 0 -105 -7q5 83 63 132t152 49q27 0 47 -4v60h61v-77q35 -16 63 -44v121h62v-239q4 -17 8 -51zM-255 761q64 -10 112 -28q-23 54 -66 81t-99 27q-50 0 -86 -20t-48 -52q19 2 60 2q63 0 127 -10z" />
    <glyph glyph-name="uni0E38" unicode="&#xe38;"
d="M-152 -220q-12 -4 -29 -4q-36 0 -59 23t-23 59t26.5 59t65.5 23q44 0 70.5 -23.5t26.5 -58.5v-188h-78v110zM-154 -168q10 10 10 26t-10 26t-26 10t-26 -10t-10 -26t10 -26t26 -10t26 10z" />
    <glyph glyph-name="uni0E39" unicode="&#xe39;"
d="M-276.5 -308.5q-29.5 23.5 -29.5 65.5v23q-16 -4 -28 -4q-36 0 -58.5 23t-22.5 59t24.5 59t62.5 23q41 0 67.5 -21.5t26.5 -55.5v-106q0 -16 11 -25t33 -9t33 9t11 25v178h72v-178q0 -42 -30.5 -65.5t-87.5 -23.5q-55 0 -84.5 23.5zM-307 -168q10 10 10 26t-10 26t-26 10
t-26 -10t-10 -26t10 -26t26 -10t26 10z" />
    <glyph glyph-name="uni0E3A" unicode="&#xe3a;"
d="M-156 -153q-15 15 -15 39t15 39t39 15t39 -15t15 -39t-15 -39t-39 -15t-39 15z" />
    <glyph glyph-name="uni0E3F" unicode="&#xe3f;" horiz-adv-x="589"
d="M485.5 53.5q-53.5 -49.5 -162.5 -53.5v-80h-79v80h-163v700h163v69h79v-71q188 -18 188 -166q0 -59 -26 -97t-81 -59v-3q70 -19 102.5 -60.5t32.5 -112.5q0 -97 -53.5 -146.5zM173 405h116q64 0 97 30.5t33 89.5q0 53 -36 77t-114 24h-96v-221zM448 202q0 69 -43.5 101
t-137.5 32h-94v-261h135q140 0 140 128z" />
    <glyph glyph-name="uni0E40" unicode="&#xe40;" horiz-adv-x="310"
d="M264 165q28 -29 28 -74q0 -44 -29.5 -72.5t-76.5 -28.5q-48 0 -78 29.5t-30 76.5v480h84v-387q15 5 29 5q45 0 73 -29zM224 58.5q13 13.5 13 33.5t-13 33.5t-34 13.5t-34 -13.5t-13 -33.5t13 -33.5t34 -13.5t34 13.5z" />
    <glyph glyph-name="uni0E41" unicode="&#xe41;" horiz-adv-x="579"
d="M264 165q28 -29 28 -74q0 -44 -29.5 -72.5t-76.5 -28.5q-48 0 -78 29.5t-30 76.5v480h84v-387q15 5 29 5q45 0 73 -29zM224 58.5q13 13.5 13 33.5t-13 33.5t-34 13.5t-34 -13.5t-13 -33.5t13 -33.5t34 -13.5t34 13.5zM533 165q28 -29 28 -74q0 -44 -29.5 -72.5
t-76.5 -28.5q-48 0 -78 29.5t-30 76.5v480h84v-387q15 5 29 5q45 0 73 -29zM493 58.5q13 13.5 13 33.5t-13 33.5t-34 13.5t-34 -13.5t-13 -33.5t13 -33.5t34 -13.5t34 13.5z" />
    <glyph glyph-name="uni0E42" unicode="&#xe42;" horiz-adv-x="379"
d="M324 165q28 -29 28 -74q0 -44 -29.5 -72.5t-76.5 -28.5q-48 0 -78 29.5t-30 76.5v600q0 28 -28 53.5t-71 41t-83 17.5q1 78 43 120t102 42q28 0 51.5 -7.5t54.5 -21.5q32 -16 47 -16q12 0 20 10t11 28l63 -13q-9 -43 -30.5 -67.5t-54.5 -24.5q-31 0 -81 23
q-28 11 -43.5 16t-31.5 5q-24 0 -41 -12.5t-21 -35.5q178 -51 178 -155v-509q16 4 29 4q44 0 72 -29zM284 58.5q13 13.5 13 33.5t-13 33.5t-33 13.5q-21 0 -34.5 -13.5t-13.5 -33.5t13.5 -33.5t34.5 -13.5q20 0 33 13.5z" />
    <glyph glyph-name="uni0E43" unicode="&#xe43;" horiz-adv-x="378"
d="M325.5 165q28.5 -29 28.5 -74q0 -44 -29.5 -72.5t-76.5 -28.5q-48 0 -78.5 29.5t-30.5 76.5v562q0 37 8.5 63t24.5 61q11 23 16 37t5 30q0 34 -24.5 52.5t-63.5 18.5q-23 0 -42 -7.5t-32 -20.5h7q37 0 61.5 -24t24.5 -61q0 -39 -26.5 -64t-67.5 -25t-68 26.5t-27 77.5
q0 45 21.5 81.5t61.5 57.5t92 21q71 0 119 -36t48 -97q0 -22 -5.5 -38.5t-17.5 -41.5q-14 -27 -22 -51.5t-8 -60.5v-467q16 4 29 4q44 0 72.5 -29zM60.5 834.5q-11.5 11.5 -29.5 11.5t-29.5 -11.5t-11.5 -29.5t11.5 -29.5t29.5 -11.5t29.5 11.5t11.5 29.5t-11.5 29.5z
M285.5 58.5q13.5 13.5 13.5 33.5t-13.5 33.5t-33.5 13.5q-21 0 -34 -13.5t-13 -33.5t13 -33.5t34 -13.5q20 0 33.5 13.5z" />
    <glyph glyph-name="uni0E44" unicode="&#xe44;" horiz-adv-x="390"
d="M337.5 165q28.5 -29 28.5 -74q0 -44 -30 -72.5t-76 -28.5q-48 0 -78.5 29.5t-30.5 76.5v774l-111 -154l-68 24q-4 85 -37 251h68q23 -103 28 -193l126 178h79v-787q15 5 29 5q44 0 72.5 -29zM297.5 58.5q13.5 13.5 13.5 33.5t-13.5 33.5t-33.5 13.5q-21 0 -34 -13.5
t-13 -33.5t13 -33.5t34 -13.5q20 0 33.5 13.5z" />
    <glyph glyph-name="uni0E45" unicode="&#xe45;" horiz-adv-x="293"
d="M135 426q0 42 -28 66.5t-75 24.5q-51 0 -80.5 -28t-29.5 -76h-83q0 80 52 126.5t141 46.5q87 0 137 -42t50 -116v-678h-84v676z" />
    <glyph glyph-name="uni0E46" unicode="&#xe46;" horiz-adv-x="621"
d="M492 520.5q35 -43.5 35 -106.5v-664h-85v664q0 35 -12.5 57.5t-41.5 40.5l-77 -57l-90 57q-42 -24 -54 -95q14 6 30 6q48 0 78.5 -29t30.5 -75q0 -44 -30.5 -73t-77.5 -29q-57 0 -87.5 39t-30.5 106q0 76 37.5 139t105.5 85l86 -57l78 57q70 -22 105 -65.5zM165 353
q-13 -13 -13 -34q0 -20 13 -33t33 -13q21 0 34 13t13 33q0 21 -13 34t-34 13q-20 0 -33 -13z" />
    <glyph glyph-name="uni0E47" unicode="&#xe47;"
d="M-123 820q21 -20 21 -53q0 -35 -23 -56.5t-64 -21.5q-35 0 -71 17.5t-69 49.5q-16 -8 -36.5 -28.5t-36.5 -43.5q-36 15 -56 50t-20 76q0 53 39.5 88t101.5 35h101q66 0 69 96h66q0 -72 -34 -113.5t-99 -41.5h-109q-29 0 -48 -17.5t-19 -45.5q0 -13 4 -27t11 -24
q15 18 36 32.5t40 19.5q29 -31 68 -57q-1 5 -1 15q0 31 21 50.5t54 19.5t54 -20zM-154.5 743.5q9.5 9.5 9.5 22.5q0 14 -9 23.5t-23 9.5t-23 -9.5t-9 -23.5t9 -23t23 -9q13 0 22.5 9.5z" />
    <glyph glyph-name="uni0E48" unicode="&#xe48;"
d="M-155 903h80v-214h-80v214z" />
    <glyph glyph-name="uni0E49" unicode="&#xe49;"
d="M31 945q-9 -77 -55.5 -135t-121.5 -89.5t-167 -31.5h-38v40q25 10 49 28t41 40q-5 -1 -15 -1q-37 0 -58 22.5t-21 58.5q0 35 24 57.5t62 22.5t62.5 -24t24.5 -64q0 -30 -15.5 -64.5t-41.5 -56.5q79 11 132.5 66.5t61.5 130.5h76zM-295.5 848.5q10.5 -10.5 26.5 -10.5
t26.5 10.5t10.5 26.5t-10.5 26.5t-26.5 10.5q-17 0 -27 -10t-10 -27q0 -16 10.5 -26.5z" />
    <glyph glyph-name="uni0E4A" unicode="&#xe4a;"
d="M7 934q0 -74 -28.5 -129.5t-81.5 -85.5t-123 -30v45q19 11 31.5 36.5t12.5 52.5q0 24 -9.5 42.5t-28.5 24.5l-62 -44l-62 43q-23 -13 -41 -47q4 1 12 1q34 0 56 -22t22 -55q0 -34 -22 -55.5t-56 -21.5q-41 0 -63 27.5t-22 70.5q0 57 32 101.5t84 55.5l60 -44l62 44
q48 -6 73 -39t25 -76q0 -46 -32 -84q43 17 64.5 67t21.5 122h75zM-348.5 791q-9.5 9 -25.5 9t-25 -9t-9 -25t9 -25.5t25 -9.5t25.5 9.5t9.5 25.5t-9.5 25z" />
    <glyph glyph-name="uni0E4B" unicode="&#xe4b;"
d="M11 774h-88v-85h-76v85h-89v59h89v84h76v-84h88v-59z" />
    <glyph glyph-name="uni0E4C" unicode="&#xe4c;"
d="M-3 973q0 -42 -23.5 -63.5t-75.5 -40.5q-9 -3 -17.5 -5.5t-15.5 -5.5l-28 -9q18 -12 28 -30.5t10 -41.5q0 -38 -25.5 -63t-65.5 -25t-65 26t-25 67q0 40 23.5 64t48 33.5t85.5 29.5q38 12 57.5 25.5t19.5 38.5h69zM-185 746.5q11 11.5 11 28.5t-11 28t-27 11
q-17 0 -27.5 -11t-10.5 -28t10.5 -28.5t27.5 -11.5q16 0 27 11.5z" />
    <glyph glyph-name="uni0E4D" unicode="&#xe4d;"
d="M-206.5 698.5q-32.5 32.5 -32.5 82.5t32.5 82.5t84.5 32.5t85 -32.5t33 -82.5t-33 -82.5t-85 -32.5t-84.5 32.5zM-77 735.5q17 17.5 17 45.5t-17 45.5t-45 17.5q-27 0 -44 -17.5t-17 -45.5t17 -45.5t44 -17.5q28 0 45 17.5z" />
    <glyph glyph-name="uni0E4E" unicode="&#xe4e;"
d="M-272.5 703.5q-28.5 22.5 -28.5 61.5q0 35 26 59.5t70 29.5q-14 9 -22 24.5t-8 33.5q0 40 33 63.5t90 23.5q44 0 77 -16l-18 -47q-31 11 -61 11q-27 0 -42 -10t-15 -29q0 -40 76 -53l-19 -42q-20 8 -48 8q-36 0 -56 -13.5t-20 -36.5q0 -20 16 -31t43 -11q23 0 53 12
l2 -46q-33 -14 -72 -14q-48 0 -76.5 22.5z" />
    <glyph glyph-name="uni0E4F" unicode="&#xe4f;" horiz-adv-x="621"
d="M181.5 23q-57.5 32 -89.5 89t-32 129t32 129t89.5 89t129.5 32t129 -32t89 -89t32 -129t-32 -129t-89 -89t-129 -32t-129.5 32zM415 64q46 26 72 72.5t26 104.5t-26 104.5t-72 72.5t-104 26q-59 0 -105 -26t-72 -72.5t-26 -104.5t26 -104.5t72 -72.5t105 -26q58 0 104 26
zM208.5 138.5q-40.5 40.5 -40.5 102.5t40.5 102.5t102.5 40.5t102 -40.5t40 -102.5t-40 -102.5t-102 -40.5t-102.5 40.5zM382 169q28 28 28 72t-28 72t-71 28t-71.5 -28t-28.5 -72q0 -43 28.5 -71.5t71.5 -28.5t71 28z" />
    <glyph glyph-name="uni0E50" unicode="&#xe50;" horiz-adv-x="660"
d="M185 18.5q-63 28.5 -97.5 79t-34.5 114.5q0 63 34.5 113.5t97.5 79.5t145 29t145 -29t97.5 -79.5t34.5 -113.5q0 -64 -34.5 -114.5t-97.5 -79t-145 -28.5t-145 28.5zM472 100q54 43 54 112t-54 112t-142 43t-142 -43t-54 -112t54 -112t142 -43t142 43z" />
    <glyph glyph-name="uni0E51" unicode="&#xe51;" horiz-adv-x="676"
d="M481.5 404q65.5 -30 103.5 -87.5t38 -138.5q0 -56 -19.5 -110.5t-56.5 -91.5h-94q43 36 66 88t23 107q0 61 -27.5 105.5t-75 67.5t-106.5 23q-57 0 -102.5 -21t-71 -59.5t-25.5 -88.5q0 -63 36.5 -105t94.5 -42q33 0 58.5 14.5t35.5 41.5q-18 -4 -30 -4q-41 0 -68.5 26.5
t-27.5 68.5q0 41 28 68t73 27q49 0 78.5 -32.5t29.5 -85.5q0 -50 -23.5 -92.5t-67 -67.5t-100.5 -25q-60 0 -105 27t-69 75t-24 109q0 71 36.5 124t100.5 81t144 28q82 0 147.5 -30zM299.5 162.5q13.5 -13.5 34.5 -13.5q22 0 36 13.5t14 34.5q0 22 -14 36t-36 14
q-21 0 -34.5 -14t-13.5 -36q0 -21 13.5 -34.5z" />
    <glyph glyph-name="uni0E52" unicode="&#xe52;" horiz-adv-x="685"
d="M601 379.5q32 -54.5 32 -148.5q0 -124 -67.5 -182.5t-210.5 -58.5q-144 0 -218.5 53t-74.5 159v296q0 38 -39 41v69h35q86 0 86 -89v-319q0 -143 213 -143q112 0 155.5 43.5t43.5 133.5q0 60 -13.5 98.5t-43.5 38.5q-23 0 -39.5 -20.5t-18.5 -52.5h-42q-5 36 -22 55.5
t-43 19.5t-44 -17t-24 -44q16 7 32 7q40 0 65.5 -26t25.5 -66t-27 -65.5t-70 -25.5q-48 0 -75.5 33.5t-27.5 91.5q0 75 38 124t101 49q64 0 92 -61q22 61 84 61q65 0 97 -54.5zM324.5 259q-11.5 12 -30.5 12t-31 -12t-12 -31q0 -18 12 -30t31 -12t30.5 12t11.5 30
q0 19 -11.5 31z" />
    <glyph glyph-name="uni0E53" unicode="&#xe53;" horiz-adv-x="694"
d="M597.5 395q33.5 -39 33.5 -107v-288h-81v286q0 81 -64 81q-37 0 -57 -26.5t-20 -64.5v-276h-77v271q0 39 -23.5 67.5t-63.5 28.5q-54 0 -80.5 -41.5t-28.5 -119.5q-1 -11 -0.5 -22.5t0.5 -16.5q10 9 24.5 14.5t30.5 5.5q41 0 68 -28.5t27 -71.5t-29.5 -70t-74.5 -27
q-62 0 -95.5 52.5t-33.5 151.5q0 113 49.5 176.5t134.5 63.5q50 0 84 -21t50 -59q16 38 48 59t78 21q67 0 100.5 -39zM150 123.5q-14 -13.5 -14 -34.5t14 -35t35 -14t34.5 14t13.5 35t-13.5 34.5t-34.5 13.5t-35 -13.5z" />
    <glyph glyph-name="uni0E54" unicode="&#xe54;" horiz-adv-x="678"
d="M548 10q-34 10 -58 10q-16 0 -48.5 -5.5t-40.5 -6.5q-96 -18 -142 -18q-93 0 -149.5 56t-56.5 156q0 112 72 170t210 62q86 2 119 6t63 16q37 15 64 55t33 97h75q-23 -171 -151 -218q-31 -12 -69.5 -15.5t-91.5 -3.5h-42q-91 -1 -146 -41t-55 -129q0 -69 37 -108t102 -39
q28 0 64.5 4.5t67.5 11.5q-77 18 -116.5 55.5t-39.5 88.5q0 44 29 71t73 27t72 -26.5t28 -65.5q0 -30 -16.5 -55.5t-42.5 -35.5q33 -14 104 -33q54 -15 91.5 -27.5t70.5 -31.5l-36 -56q-40 19 -74 29zM384 182q13 13 13 34q0 22 -13 34.5t-34 12.5q-22 0 -34.5 -12.5
t-12.5 -34.5q0 -21 12.5 -34t34.5 -13q21 0 34 13z" />
    <glyph glyph-name="uni0E55" unicode="&#xe55;" horiz-adv-x="678"
d="M434.5 164.5q-16.5 -25.5 -42.5 -35.5q33 -14 104 -33q54 -15 91.5 -27.5t70.5 -31.5l-36 -56q-40 19 -74 29t-58 10q-16 0 -48.5 -5.5t-40.5 -6.5q-96 -18 -142 -18q-93 0 -149.5 56t-56.5 156q0 103 60.5 160.5t177.5 68.5q-17 25 -17 54q0 44 28.5 72.5t72.5 28.5
q45 0 74 -28.5t29 -72.5q0 -23 -11 -43q27 4 50 14q37 15 64 55t33 97h75q-23 -171 -151 -218q-31 -12 -69.5 -15.5t-91.5 -3.5h-42q-91 -1 -146 -41t-55 -129q0 -69 37 -108t102 -39q28 0 64.5 4.5t67.5 11.5q-77 18 -116.5 55.5t-39.5 88.5q0 44 29 71t73 27t72 -26.5
t28 -65.5q0 -30 -16.5 -55.5zM340.5 520.5q-13.5 -13.5 -13.5 -34.5t13.5 -34.5t34.5 -13.5q22 0 36 13.5t14 34.5t-14 34.5t-36 13.5q-21 0 -34.5 -13.5zM384 182q13 13 13 34q0 22 -13 34.5t-34 12.5q-22 0 -34.5 -12.5t-12.5 -34.5q0 -21 12.5 -34t34.5 -13q21 0 34 13z
" />
    <glyph glyph-name="uni0E56" unicode="&#xe56;" horiz-adv-x="675"
d="M165 27.5q-60 37.5 -60 103.5q0 44 28.5 71.5t73.5 27.5t74 -27.5t29 -69.5q0 -22 -9.5 -42t-24.5 -32q25 -4 56 -4q97 0 153 41t56 117q0 75 -52.5 114.5t-132.5 39.5q-63 0 -117 -22t-87 -58h-51q-5 101 -26 187t-54 134h88q25 -49 40 -109.5t17 -122.5q85 58 190 58
q74 0 135 -25.5t96 -75t35 -117.5q0 -67 -35.5 -118t-102 -79.5t-156.5 -28.5q-103 0 -163 37.5zM243.5 95q14.5 14 14.5 36t-14.5 36t-36.5 14q-21 0 -35 -14t-14 -36t14 -36t35 -14q22 0 36.5 14z" />
    <glyph glyph-name="uni0E57" unicode="&#xe57;" horiz-adv-x="744"
d="M724 608q-16 -46 -20.5 -98t-4.5 -137q-1 -18 -1 -57q-2 -146 -56 -227.5t-172 -93.5l-37 29q47 129 47 229q0 54 -16 83t-47 29q-30 0 -45 -25.5t-15 -66.5v-80h-68v80q0 35 -18.5 63.5t-50.5 28.5q-39 0 -61 -40.5t-23 -116.5v-13q0 -20 1 -28q19 19 54 19
q41 0 68.5 -28t27.5 -71t-29 -70t-75 -27q-64 0 -97 55t-33 151q0 110 44 174t118 64q36 0 65 -21t43 -61q27 82 104 82q64 0 98.5 -47.5t34.5 -135.5q0 -82 -33 -170q47 25 70.5 75.5t24.5 138.5v46v54q0 77 4.5 127.5t20.5 85.5h77zM150.5 123q-13.5 -14 -13.5 -36
t13.5 -35.5t35.5 -13.5t36 14t14 35t-14 35.5t-36 14.5t-35.5 -14z" />
    <glyph glyph-name="uni0E58" unicode="&#xe58;" horiz-adv-x="674"
d="M597 235.5q29 -31.5 29 -83.5q0 -69 -43 -115.5t-121 -46.5q-55 0 -99.5 28.5t-87.5 88.5q-16 -9 -46.5 -45t-43.5 -62h-47q-42 30 -63.5 82t-21.5 119q0 115 67 174t193 59q24 0 66 -6q36 -4 48 -4q115 0 115 146v38h78v-43q0 -103 -46 -157t-136 -54q-23 0 -61 5
q-10 1 -32 3t-35 2q-86 0 -131 -40.5t-45 -117.5q0 -34 9 -70t23 -51q26 35 57 63t75 49q24 -56 71 -99.5t95 -43.5q17 0 33.5 6t27.5 16q-6 -1 -15 -1q-38 0 -63.5 27t-25.5 68q0 43 27.5 70t71.5 27q48 0 77 -31.5zM555.5 136q13.5 14 13.5 35t-13.5 34.5t-34.5 13.5
q-22 0 -35.5 -13.5t-13.5 -34.5t13.5 -35t35.5 -14q21 0 34.5 14z" />
    <glyph glyph-name="uni0E59" unicode="&#xe59;" horiz-adv-x="692"
d="M522.5 164q52.5 -74 113.5 -125l-49 -49q-66 59 -126.5 145t-87.5 163q-9 26 -41.5 46.5t-69.5 20.5q-59 0 -93.5 -44t-34.5 -112q0 -40 12.5 -72t36.5 -52q-2 12 -2 19q0 37 27.5 62.5t68.5 25.5q44 0 72.5 -28t28.5 -71q0 -45 -34.5 -74t-87.5 -29q-64 0 -110 30
t-69.5 80t-23.5 110q0 61 24.5 112t71.5 81.5t112 30.5q40 0 76.5 -15.5t62.5 -46.5q3 28 21 45t42 17q16 0 29 -7t31 -21q13 -11 21 -16t17 -5q37 0 37 92q0 57 -14 131h65q13 -76 13 -133q0 -149 -90 -149q-19 0 -33 7t-31 19q-21 17 -33 17q-14 0 -22 -12.5t-11 -36.5
q28 -82 80.5 -156zM241 128q-14 -14 -14 -35t14 -35t35 -14t35 14t14 35t-14 35t-35 14t-35 -14z" />
    <glyph glyph-name="uni0E5A" unicode="&#xe5a;" horiz-adv-x="767"
d="M669 552q24 -24 24 -67v-485h-84v470q0 34 -35 36q-37 -87 -102 -119v-387h-85v470q0 35 -33 36q-29 -65 -80.5 -103t-114.5 -38q-60 0 -97 32t-37 84q0 47 30 76t77 29t76.5 -28.5t29.5 -72.5q0 -22 -11 -42q35 16 57 50.5t30 82.5h66q44 0 68 -23.5t24 -67.5v-23
q24 20 40 49t23 65h66q44 0 68 -24zM164.5 450.5q13.5 13.5 13.5 33.5t-13.5 33.5t-33.5 13.5t-33.5 -13.5t-13.5 -33.5t13.5 -33.5t33.5 -13.5t33.5 13.5z" />
    <glyph glyph-name="uni0E5B" unicode="&#xe5b;" horiz-adv-x="1020"
d="M984 286v-50h-109l-37 64l-47 -106h-44l-46 105l-44 -121h-57l-43 109q-5 -85 -40 -144.5t-91 -90t-124 -30.5q-69 0 -121 31t-80 87.5t-28 131.5q0 109 53.5 173.5t144.5 64.5q75 0 116.5 -45t41.5 -125q0 -70 -32 -114t-87 -44q-41 0 -65.5 24.5t-24.5 62.5t23.5 62
t61.5 24q40 0 60 -22v11q0 48 -23.5 74t-70.5 26q-57 0 -91 -48t-34 -127q0 -85 41.5 -132.5t114.5 -47.5q57 0 101 30t68.5 82t24.5 118v86h82l52 -145l40 112h57l42 -99l41 86h50l42 -73h82zM335 240q11 11 11 28t-11 28.5t-28 11.5q-18 0 -29 -11.5t-11 -28.5t11 -28
t29 -11q17 0 28 11z" />
    <glyph glyph-name="uni1E0C" unicode="&#x1e0c;" horiz-adv-x="623"
d="M81 700h222q137 0 206.5 -85t69.5 -251q0 -130 -31 -209.5t-97.5 -117t-175.5 -37.5h-194v700zM291 76q102 0 149 69t47 219q0 133 -46 196.5t-142 63.5h-126v-548h118zM262.5 -159.5q-14.5 14.5 -14.5 36.5t14.5 36.5t37.5 14.5t37.5 -14.5t14.5 -36.5t-14.5 -36.5
t-37.5 -14.5t-37.5 14.5z" />
    <glyph glyph-name="uni1E0D" unicode="&#x1e0d;" horiz-adv-x="542"
d="M90.5 62q-56.5 72 -56.5 197q0 76 26 132.5t74 87.5t112 31q92 0 148 -77h2v309h84v-616q0 -93 3 -126h-78q-2 24 -2 79h-2q-23 -40 -66 -64.5t-91 -24.5q-97 0 -153.5 72zM357.5 96.5q37.5 38.5 37.5 103.5v91q0 70 -38 112t-101 42q-64 0 -100.5 -49.5t-36.5 -138.5
q0 -93 36.5 -146t100.5 -53t101.5 38.5zM237.5 -159.5q-14.5 14.5 -14.5 36.5t14.5 36.5t37.5 14.5t37.5 -14.5t14.5 -36.5t-14.5 -36.5t-37.5 -14.5t-37.5 14.5z" />
    <glyph glyph-name="uni1E0E" unicode="&#x1e0e;" horiz-adv-x="623"
d="M81 700h222q137 0 206.5 -85t69.5 -251q0 -130 -31 -209.5t-97.5 -117t-175.5 -37.5h-194v700zM291 76q102 0 149 69t47 219q0 133 -46 196.5t-142 63.5h-126v-548h118zM144 -64h312v-59h-312v59z" />
    <glyph glyph-name="uni1E0F" unicode="&#x1e0f;" horiz-adv-x="542"
d="M90.5 62q-56.5 72 -56.5 197q0 76 26 132.5t74 87.5t112 31q92 0 148 -77h2v309h84v-616q0 -93 3 -126h-78q-2 24 -2 79h-2q-23 -40 -66 -64.5t-91 -24.5q-97 0 -153.5 72zM357.5 96.5q37.5 38.5 37.5 103.5v91q0 70 -38 112t-101 42q-64 0 -100.5 -49.5t-36.5 -138.5
q0 -93 36.5 -146t100.5 -53t101.5 38.5zM119 -64h312v-59h-312v59z" />
    <glyph glyph-name="uni1E20" unicode="&#x1e20;" horiz-adv-x="636"
d="M575 362v-362h-62l-15 44q-33 -26 -77.5 -40t-94.5 -14q-90 0 -156 43.5t-101 124.5t-35 192q0 109 37.5 190t106 125.5t160.5 44.5q78 0 138 -29t88 -80l-51 -51q-26 41 -70.5 62.5t-103.5 21.5q-100 0 -156 -75t-56 -209q0 -136 54.5 -212t152.5 -76q46 0 84.5 13
t65.5 38v181h-167v68h258zM181 823h312v-59h-312v59z" />
    <glyph glyph-name="uni1E21" unicode="&#x1e21;" horiz-adv-x="541"
d="M480 500v-484q0 -120 -59 -182t-173 -62q-50 0 -97.5 12t-85.5 34l28 62q75 -36 152 -36q156 0 156 185v46q-20 -38 -61 -60t-93 -22q-99 0 -156 71t-57 194q0 118 56 185t154 67q52 0 91.5 -21t62.5 -61h2l10 72h70zM395 283q0 76 -36 119t-100 43q-65 0 -102.5 -50.5
t-37.5 -138.5q0 -92 37 -143.5t103 -51.5q64 0 100 38.5t36 107.5v76zM99 623h312v-59h-312v59z" />
    <glyph glyph-name="uni1E24" unicode="&#x1e24;" horiz-adv-x="678"
d="M80 700h92v-308h334v308h92v-700h-92v316h-334v-316h-92v700zM301.5 -159.5q-14.5 14.5 -14.5 36.5t14.5 36.5t37.5 14.5t37.5 -14.5t14.5 -36.5t-14.5 -36.5t-37.5 -14.5t-37.5 14.5z" />
    <glyph glyph-name="uni1E25" unicode="&#x1e25;" horiz-adv-x="558"
d="M61 742h85v-320q23 41 67.5 64.5t99.5 23.5q88 0 136 -58.5t48 -165.5v-286h-85v287q0 77 -29.5 117.5t-84.5 40.5q-43 0 -78 -22t-54.5 -61.5t-19.5 -88.5v-273h-85v742zM241.5 -159.5q-14.5 14.5 -14.5 36.5t14.5 36.5t37.5 14.5t37.5 -14.5t14.5 -36.5t-14.5 -36.5
t-37.5 -14.5t-37.5 14.5z" />
    <glyph glyph-name="uni1E2A" unicode="&#x1e2a;" horiz-adv-x="678"
d="M80 700h92v-308h334v308h92v-700h-92v316h-334v-316h-92v700zM235.5 -171q-38.5 33 -41.5 99h54q2 -35 25 -55.5t66 -20.5q40 0 64 19t27 57h54q-2 -62 -38.5 -97t-106.5 -35q-65 0 -103.5 33z" />
    <glyph glyph-name="uni1E2B" unicode="&#x1e2b;" horiz-adv-x="558"
d="M61 742h85v-320q23 41 67.5 64.5t99.5 23.5q88 0 136 -58.5t48 -165.5v-286h-85v287q0 77 -29.5 117.5t-84.5 40.5q-43 0 -78 -22t-54.5 -61.5t-19.5 -88.5v-273h-85v742zM175.5 -171q-38.5 33 -41.5 99h54q2 -35 25 -55.5t66 -20.5q40 0 64 19t27 57h54
q-2 -62 -38.5 -97t-106.5 -35q-65 0 -103.5 33z" />
    <glyph glyph-name="uni1E36" unicode="&#x1e36;" horiz-adv-x="548"
d="M80 700h92v-624h338v-76h-430v700zM255.5 -159.5q-14.5 14.5 -14.5 36.5t14.5 36.5t37.5 14.5t37.5 -14.5t14.5 -36.5t-14.5 -36.5t-37.5 -14.5t-37.5 14.5z" />
    <glyph glyph-name="uni1E37" unicode="&#x1e37;" horiz-adv-x="291"
d="M70 117v625h85v-624q0 -35 11.5 -49.5t39.5 -14.5q22 0 50 12l13 -51q-38 -25 -91 -25q-108 0 -108 127zM138.5 -159.5q-14.5 14.5 -14.5 36.5t14.5 36.5t37.5 14.5t37.5 -14.5t14.5 -36.5t-14.5 -36.5t-37.5 -14.5t-37.5 14.5z" />
    <glyph glyph-name="uni1E38" unicode="&#x1e38;" horiz-adv-x="548"
d="M80 700h92v-624h338v-76h-430v700zM255.5 -159.5q-14.5 14.5 -14.5 36.5t14.5 36.5t37.5 14.5t37.5 -14.5t14.5 -36.5t-14.5 -36.5t-37.5 -14.5t-37.5 14.5zM-30 823h312v-59h-312v59z" />
    <glyph glyph-name="uni1E39" unicode="&#x1e39;" horiz-adv-x="291"
d="M70 117v625h85v-624q0 -35 11.5 -49.5t39.5 -14.5q22 0 50 12l13 -51q-38 -25 -91 -25q-108 0 -108 127zM138.5 -159.5q-14.5 14.5 -14.5 36.5t14.5 36.5t37.5 14.5t37.5 -14.5t14.5 -36.5t-14.5 -36.5t-37.5 -14.5t-37.5 14.5zM-43 865h312v-59h-312v59z" />
    <glyph glyph-name="uni1E3A" unicode="&#x1e3a;" horiz-adv-x="548"
d="M80 700h92v-624h338v-76h-430v700zM137 -64h312v-59h-312v59z" />
    <glyph glyph-name="uni1E3B" unicode="&#x1e3b;" horiz-adv-x="291"
d="M70 117v625h85v-624q0 -35 11.5 -49.5t39.5 -14.5q22 0 50 12l13 -51q-38 -25 -91 -25q-108 0 -108 127zM20 -64h312v-59h-312v59z" />
    <glyph glyph-name="uni1E42" unicode="&#x1e42;" horiz-adv-x="798"
d="M717 700v-700h-90v530l-196 -530h-64l-196 530v-530h-90v700h106l212 -584l212 584h106zM361.5 -159.5q-14.5 14.5 -14.5 36.5t14.5 36.5t37.5 14.5t37.5 -14.5t14.5 -36.5t-14.5 -36.5t-37.5 -14.5t-37.5 14.5z" />
    <glyph glyph-name="uni1E43" unicode="&#x1e43;" horiz-adv-x="839"
d="M61 374q0 76 -5 126h76q4 -40 4 -89h3q20 46 63 72.5t96 26.5t91 -27t51 -75q21 47 64 74.5t97 27.5q82 0 128.5 -53t46.5 -148v-309h-84v302q0 68 -28.5 104t-82.5 36q-53 0 -87 -39.5t-34 -101.5v-301h-84v298q0 73 -26 108.5t-79 35.5q-33 0 -62 -20t-46.5 -53
t-17.5 -71v-298h-84v374zM380.5 -159.5q-14.5 14.5 -14.5 36.5t14.5 36.5t37.5 14.5t37.5 -14.5t14.5 -36.5t-14.5 -36.5t-37.5 -14.5t-37.5 14.5z" />
    <glyph glyph-name="uni1E44" unicode="&#x1e44;" horiz-adv-x="682"
d="M602 700v-700h-91l-339 554v-554h-92v700h97l333 -547v547h92zM304 768.5q-15 14.5 -15 36.5t14.5 36.5t37.5 14.5t37.5 -14.5t14.5 -36.5t-15 -36.5t-37 -14.5t-37 14.5z" />
    <glyph glyph-name="uni1E45" unicode="&#x1e45;" horiz-adv-x="549"
d="M60 374q0 95 -4 126h79q4 -33 4 -89h3q22 46 67.5 72.5t101.5 26.5q88 0 132 -57t44 -170v-283h-85v284q0 80 -27 119t-82 39q-42 0 -76 -21.5t-53 -60t-19 -86.5v-274h-85v374zM237 568.5q-15 14.5 -15 36.5t14.5 36.5t37.5 14.5t37.5 -14.5t14.5 -36.5t-15 -36.5
t-37 -14.5t-37 14.5z" />
    <glyph glyph-name="uni1E46" unicode="&#x1e46;" horiz-adv-x="682"
d="M602 700v-700h-91l-339 554v-554h-92v700h97l333 -547v547h92zM303.5 -159.5q-14.5 14.5 -14.5 36.5t14.5 36.5t37.5 14.5t37.5 -14.5t14.5 -36.5t-14.5 -36.5t-37.5 -14.5t-37.5 14.5z" />
    <glyph glyph-name="uni1E47" unicode="&#x1e47;" horiz-adv-x="549"
d="M60 374q0 95 -4 126h79q4 -33 4 -89h3q22 46 67.5 72.5t101.5 26.5q88 0 132 -57t44 -170v-283h-85v284q0 80 -27 119t-82 39q-42 0 -76 -21.5t-53 -60t-19 -86.5v-274h-85v374zM236.5 -159.5q-14.5 14.5 -14.5 36.5t14.5 36.5t37.5 14.5t37.5 -14.5t14.5 -36.5
t-14.5 -36.5t-37.5 -14.5t-37.5 14.5z" />
    <glyph glyph-name="uni1E48" unicode="&#x1e48;" horiz-adv-x="682"
d="M602 700v-700h-91l-339 554v-554h-92v700h97l333 -547v547h92zM185 -64h312v-59h-312v59z" />
    <glyph glyph-name="uni1E49" unicode="&#x1e49;" horiz-adv-x="549"
d="M60 374q0 95 -4 126h79q4 -33 4 -89h3q22 46 67.5 72.5t101.5 26.5q88 0 132 -57t44 -170v-283h-85v284q0 80 -27 119t-82 39q-42 0 -76 -21.5t-53 -60t-19 -86.5v-274h-85v374zM118 -64h312v-59h-312v59z" />
    <glyph glyph-name="uni1E5A" unicode="&#x1e5a;" horiz-adv-x="581"
d="M81 700h215q114 0 170 -46.5t56 -140.5q0 -70 -35 -118.5t-97 -65.5v-2q21 -14 34 -29.5t22 -37.5l105 -260h-99l-88 226q-17 44 -41 59t-75 15h-75v-300h-92v700zM291 375q143 0 143 132q0 59 -36 88t-110 29h-115v-249h118zM253.5 -159.5q-14.5 14.5 -14.5 36.5
t14.5 36.5t37.5 14.5t37.5 -14.5t14.5 -36.5t-14.5 -36.5t-37.5 -14.5t-37.5 14.5z" />
    <glyph glyph-name="uni1E5B" unicode="&#x1e5b;" horiz-adv-x="350"
d="M67 378q0 85 -3 122h79q4 -40 4 -88v-10h3q19 52 61 80t99 28q16 0 29 -3v-70q-13 3 -35 3q-42 0 -77 -25.5t-55 -69.5t-20 -96v-249h-85v378zM73.5 -159.5q-14.5 14.5 -14.5 36.5t14.5 36.5t37.5 14.5t37.5 -14.5t14.5 -36.5t-14.5 -36.5t-37.5 -14.5t-37.5 14.5z" />
    <glyph glyph-name="uni1E5C" unicode="&#x1e5c;" horiz-adv-x="581"
d="M81 700h215q114 0 170 -46.5t56 -140.5q0 -70 -35 -118.5t-97 -65.5v-2q21 -14 34 -29.5t22 -37.5l105 -260h-99l-88 226q-17 44 -41 59t-75 15h-75v-300h-92v700zM291 375q143 0 143 132q0 59 -36 88t-110 29h-115v-249h118zM253.5 -159.5q-14.5 14.5 -14.5 36.5
t14.5 36.5t37.5 14.5t37.5 -14.5t14.5 -36.5t-14.5 -36.5t-37.5 -14.5t-37.5 14.5zM135 823h312v-59h-312v59z" />
    <glyph glyph-name="uni1E5D" unicode="&#x1e5d;" horiz-adv-x="350"
d="M67 378q0 85 -3 122h79q4 -40 4 -88v-10h3q19 52 61 80t99 28q16 0 29 -3v-70q-13 3 -35 3q-42 0 -77 -25.5t-55 -69.5t-20 -96v-249h-85v378zM73.5 -159.5q-14.5 14.5 -14.5 36.5t14.5 36.5t37.5 14.5t37.5 -14.5t14.5 -36.5t-14.5 -36.5t-37.5 -14.5t-37.5 14.5z
M35 623h312v-59h-312v59z" />
    <glyph glyph-name="uni1E5E" unicode="&#x1e5e;" horiz-adv-x="581"
d="M81 700h215q114 0 170 -46.5t56 -140.5q0 -70 -35 -118.5t-97 -65.5v-2q21 -14 34 -29.5t22 -37.5l105 -260h-99l-88 226q-17 44 -41 59t-75 15h-75v-300h-92v700zM291 375q143 0 143 132q0 59 -36 88t-110 29h-115v-249h118zM135 -64h312v-59h-312v59z" />
    <glyph glyph-name="uni1E5F" unicode="&#x1e5f;" horiz-adv-x="350"
d="M67 378q0 85 -3 122h79q4 -40 4 -88v-10h3q19 52 61 80t99 28q16 0 29 -3v-70q-13 3 -35 3q-42 0 -77 -25.5t-55 -69.5t-20 -96v-249h-85v378zM37 -64h312v-59h-312v59z" />
    <glyph glyph-name="uni1E60" unicode="&#x1e60;" horiz-adv-x="529"
d="M133.5 19q-59.5 29 -95.5 80l56 56q31 -40 78 -64.5t93 -24.5q59 0 95.5 30t36.5 79q0 32 -12.5 56t-43 46.5t-86.5 49.5q-107 52 -150.5 98.5t-43.5 108.5q0 80 58 128t154 48q67 0 122.5 -29t80.5 -78l-60 -44q-24 35 -62 55t-80 20q-56 0 -88.5 -26.5t-32.5 -71.5
q0 -27 12 -46t44.5 -39.5t102.5 -55.5q95 -47 136 -96.5t41 -116.5q0 -57 -28.5 -100.5t-80 -67.5t-119.5 -24t-127.5 29zM228 768.5q-15 14.5 -15 36.5t14.5 36.5t37.5 14.5t37.5 -14.5t14.5 -36.5t-15 -36.5t-37 -14.5t-37 14.5z" />
    <glyph glyph-name="uni1E61" unicode="&#x1e61;" horiz-adv-x="416"
d="M98.5 13q-45.5 23 -64.5 61l55 38q17 -27 47 -42t65 -15q42 0 69.5 24.5t27.5 61.5q0 30 -22 50t-78 41q-85 31 -119.5 65t-34.5 84q0 58 46 93.5t122 35.5q49 0 89.5 -21t62.5 -58l-52 -38q-35 52 -100 52q-37 0 -60.5 -17t-23.5 -44t24 -45.5t89 -43.5
q77 -29 109 -63.5t32 -87.5q0 -70 -50 -112t-132 -42q-56 0 -101.5 23zM172 568.5q-15 14.5 -15 36.5t14.5 36.5t37.5 14.5t37.5 -14.5t14.5 -36.5t-15 -36.5t-37 -14.5t-37 14.5z" />
    <glyph glyph-name="uni1E62" unicode="&#x1e62;" horiz-adv-x="529"
d="M133.5 19q-59.5 29 -95.5 80l56 56q31 -40 78 -64.5t93 -24.5q59 0 95.5 30t36.5 79q0 32 -12.5 56t-43 46.5t-86.5 49.5q-107 52 -150.5 98.5t-43.5 108.5q0 80 58 128t154 48q67 0 122.5 -29t80.5 -78l-60 -44q-24 35 -62 55t-80 20q-56 0 -88.5 -26.5t-32.5 -71.5
q0 -27 12 -46t44.5 -39.5t102.5 -55.5q95 -47 136 -96.5t41 -116.5q0 -57 -28.5 -100.5t-80 -67.5t-119.5 -24t-127.5 29zM227.5 -159.5q-14.5 14.5 -14.5 36.5t14.5 36.5t37.5 14.5t37.5 -14.5t14.5 -36.5t-14.5 -36.5t-37.5 -14.5t-37.5 14.5z" />
    <glyph glyph-name="uni1E63" unicode="&#x1e63;" horiz-adv-x="416"
d="M98.5 13q-45.5 23 -64.5 61l55 38q17 -27 47 -42t65 -15q42 0 69.5 24.5t27.5 61.5q0 30 -22 50t-78 41q-85 31 -119.5 65t-34.5 84q0 58 46 93.5t122 35.5q49 0 89.5 -21t62.5 -58l-52 -38q-35 52 -100 52q-37 0 -60.5 -17t-23.5 -44t24 -45.5t89 -43.5
q77 -29 109 -63.5t32 -87.5q0 -70 -50 -112t-132 -42q-56 0 -101.5 23zM171.5 -159.5q-14.5 14.5 -14.5 36.5t14.5 36.5t37.5 14.5t37.5 -14.5t14.5 -36.5t-14.5 -36.5t-37.5 -14.5t-37.5 14.5z" />
    <glyph glyph-name="uni1E6C" unicode="&#x1e6c;" horiz-adv-x="558"
d="M233 628h-216v72h523v-72h-215v-628h-92v628zM241.5 -159.5q-14.5 14.5 -14.5 36.5t14.5 36.5t37.5 14.5t37.5 -14.5t14.5 -36.5t-14.5 -36.5t-37.5 -14.5t-37.5 14.5z" />
    <glyph glyph-name="uni1E6D" unicode="&#x1e6d;" horiz-adv-x="377"
d="M138 32.5q-38 42.5 -38 117.5v284h-90v66h90v133l81 25h4v-158h142v-66h-142v-276q0 -51 19 -75.5t59 -24.5q43 0 70 11l6 -63q-33 -16 -97 -16q-66 0 -104 42.5zM194.5 -159.5q-14.5 14.5 -14.5 36.5t14.5 36.5t37.5 14.5t37.5 -14.5t14.5 -36.5t-14.5 -36.5
t-37.5 -14.5t-37.5 14.5z" />
    <glyph glyph-name="uni1E6E" unicode="&#x1e6e;" horiz-adv-x="558"
d="M233 628h-216v72h523v-72h-215v-628h-92v628zM123 -64h312v-59h-312v59z" />
    <glyph glyph-name="uni1E6F" unicode="&#x1e6f;" horiz-adv-x="377"
d="M138 32.5q-38 42.5 -38 117.5v284h-90v66h90v133l81 25h4v-158h142v-66h-142v-276q0 -51 19 -75.5t59 -24.5q43 0 70 11l6 -63q-33 -16 -97 -16q-66 0 -104 42.5zM76 -64h312v-59h-312v59z" />
    <glyph glyph-name="Wgrave" unicode="&#x1e80;" horiz-adv-x="831"
d="M803 700l-145 -700h-91l-151 574l-152 -574h-91l-146 700h99l98 -559l145 559h93l144 -557l98 557h99zM284 900h87l78 -146h-68z" />
    <glyph glyph-name="wgrave" unicode="&#x1e81;" horiz-adv-x="668"
d="M657 500l-125 -500h-77l-121 409l-121 -409h-77l-125 500h89l81 -384l114 384h78l114 -384l81 384h89zM203 700h87l78 -146h-68z" />
    <glyph glyph-name="Wacute" unicode="&#x1e82;" horiz-adv-x="831"
d="M803 700l-145 -700h-91l-151 574l-152 -574h-91l-146 700h99l98 -559l145 559h93l144 -557l98 557h99zM463 900h87l-97 -146h-68z" />
    <glyph glyph-name="wacute" unicode="&#x1e83;" horiz-adv-x="668"
d="M657 500l-125 -500h-77l-121 409l-121 -409h-77l-125 500h89l81 -384l114 384h78l114 -384l81 384h89zM382 700h87l-97 -146h-68z" />
    <glyph glyph-name="Wdieresis" unicode="&#x1e84;" horiz-adv-x="831"
d="M803 700l-145 -700h-91l-151 574l-152 -574h-91l-146 700h99l98 -559l145 559h93l144 -557l98 557h99zM278 768.5q-15 14.5 -15 36.5t14.5 36.5t37.5 14.5q22 0 37 -14.5t15 -36.5t-15 -36.5t-37 -14.5t-37 14.5zM478 768.5q-15 14.5 -15 36.5t15 36.5t37 14.5
q23 0 37.5 -14.5t14.5 -36.5t-15 -36.5t-37 -14.5t-37 14.5z" />
    <glyph glyph-name="wdieresis" unicode="&#x1e85;" horiz-adv-x="668"
d="M657 500l-125 -500h-77l-121 409l-121 -409h-77l-125 500h89l81 -384l114 384h78l114 -384l81 384h89zM197 568.5q-15 14.5 -15 36.5t14.5 36.5t37.5 14.5q22 0 37 -14.5t15 -36.5t-15 -36.5t-37 -14.5t-37 14.5zM397 568.5q-15 14.5 -15 36.5t15 36.5t37 14.5
q23 0 37.5 -14.5t14.5 -36.5t-15 -36.5t-37 -14.5t-37 14.5z" />
    <glyph glyph-name="uni1E8E" unicode="&#x1e8e;" horiz-adv-x="573"
d="M240 278l-223 422h102l167 -334l167 334h102l-222 -422v-278h-93v278zM249 768.5q-15 14.5 -15 36.5t14.5 36.5t37.5 14.5t37.5 -14.5t14.5 -36.5t-15 -36.5t-37 -14.5t-37 14.5z" />
    <glyph glyph-name="uni1E8F" unicode="&#x1e8f;" horiz-adv-x="462"
d="M451 500l-181 -509q-69 -193 -213 -193q-26 0 -56 7v65q18 -6 44 -6q51 0 87 37t69 125l-186 474h91l134 -383l119 383h92zM199 568.5q-15 14.5 -15 36.5t14.5 36.5t37.5 14.5t37.5 -14.5t14.5 -36.5t-15 -36.5t-37 -14.5t-37 14.5z" />
    <glyph glyph-name="uni1E92" unicode="&#x1e92;" horiz-adv-x="567"
d="M34 51l372 573h-343v76h457v-53l-371 -571h384v-76h-499v51zM245.5 -159.5q-14.5 14.5 -14.5 36.5t14.5 36.5t37.5 14.5t37.5 -14.5t14.5 -36.5t-14.5 -36.5t-37.5 -14.5t-37.5 14.5z" />
    <glyph glyph-name="uni1E93" unicode="&#x1e93;" horiz-adv-x="451"
d="M26 48l289 386h-275v66h375v-49l-285 -385h295v-66h-399v48zM187.5 -159.5q-14.5 14.5 -14.5 36.5t14.5 36.5t37.5 14.5t37.5 -14.5t14.5 -36.5t-14.5 -36.5t-37.5 -14.5t-37.5 14.5z" />
    <glyph glyph-name="uni1E97" unicode="&#x1e97;" horiz-adv-x="377"
d="M138 32.5q-38 42.5 -38 117.5v284h-90v66h90v133l81 25h4v-158h142v-66h-142v-276q0 -51 19 -75.5t59 -24.5q43 0 70 11l6 -63q-33 -16 -97 -16q-66 0 -104 42.5zM6 726.5q-15 14.5 -15 36.5t14.5 36.5t37.5 14.5q22 0 37 -14.5t15 -36.5t-15 -36.5t-37 -14.5t-37 14.5z
M206 726.5q-15 14.5 -15 36.5t15 36.5t37 14.5q23 0 37.5 -14.5t14.5 -36.5t-15 -36.5t-37 -14.5t-37 14.5z" />
    <glyph glyph-name="uni1E9E" unicode="&#x1e9e;" horiz-adv-x="623"
d="M225 76l53 37q19 -29 45 -42t63 -13q49 0 79 34.5t30 89.5q0 44 -19.5 73.5t-63.5 51t-121 39.5v44l117 234h-236v-624h-92v700h424v-62l-126 -244q104 -26 154.5 -78.5t50.5 -133.5q0 -86 -54 -139t-142 -53q-118 0 -162 86z" />
    <glyph glyph-name="uni1EA0" unicode="&#x1ea0;" horiz-adv-x="596"
d="M434 151h-272l-47 -151h-98l238 700h86l238 -700h-98zM410 226l-112 359l-112 -359h224zM260.5 -159.5q-14.5 14.5 -14.5 36.5t14.5 36.5t37.5 14.5t37.5 -14.5t14.5 -36.5t-14.5 -36.5t-37.5 -14.5t-37.5 14.5z" />
    <glyph glyph-name="uni1EA1" unicode="&#x1ea1;" horiz-adv-x="514"
d="M87 33q-47 43 -47 111q0 75 56.5 116t160.5 41h103v26q0 56 -29.5 85.5t-85.5 29.5q-45 0 -82.5 -18.5t-62.5 -53.5l-43 52q34 43 83 65.5t109 22.5q94 0 145 -46t51 -132v-235q0 -39 12 -97h-74q-9 23 -13 70h-2q-28 -39 -69 -59.5t-91 -20.5q-74 0 -121 43zM291 71.5
q32 14.5 50.5 39.5t18.5 55v74h-106q-63 0 -97 -25t-34 -71q0 -40 26.5 -63.5t71.5 -23.5q38 0 70 14.5zM217.5 -159.5q-14.5 14.5 -14.5 36.5t14.5 36.5t37.5 14.5t37.5 -14.5t14.5 -36.5t-14.5 -36.5t-37.5 -14.5t-37.5 14.5z" />
    <glyph glyph-name="uni1EA2" unicode="&#x1ea2;" horiz-adv-x="596"
d="M434 151h-272l-47 -151h-98l238 700h86l238 -700h-98zM410 226l-112 359l-112 -359h224zM274.5 794.5q10.5 15.5 29.5 32.5q17 17 24.5 27.5t7.5 26.5q0 32 -41 32q-39 0 -63 -45l-38 34q15 29 43 45.5t65 16.5q45 0 71.5 -20.5t26.5 -59.5q0 -24 -10.5 -41t-30.5 -38
q-16 -16 -23.5 -27t-7.5 -24h-64q0 25 10.5 40.5z" />
    <glyph glyph-name="uni1EA3" unicode="&#x1ea3;" horiz-adv-x="514"
d="M87 33q-47 43 -47 111q0 75 56.5 116t160.5 41h103v26q0 56 -29.5 85.5t-85.5 29.5q-45 0 -82.5 -18.5t-62.5 -53.5l-43 52q34 43 83 65.5t109 22.5q94 0 145 -46t51 -132v-235q0 -39 12 -97h-74q-9 23 -13 70h-2q-28 -39 -69 -59.5t-91 -20.5q-74 0 -121 43zM291 71.5
q32 14.5 50.5 39.5t18.5 55v74h-106q-63 0 -97 -25t-34 -71q0 -40 26.5 -63.5t71.5 -23.5q38 0 70 14.5zM230.5 594.5q10.5 15.5 29.5 32.5q17 17 24.5 27.5t7.5 26.5q0 32 -41 32q-39 0 -63 -45l-38 34q15 29 43 45.5t65 16.5q45 0 71.5 -20.5t26.5 -59.5q0 -24 -10.5 -41
t-30.5 -38q-16 -16 -23.5 -27t-7.5 -24h-64q0 25 10.5 40.5z" />
    <glyph glyph-name="uni1EA4" unicode="&#x1ea4;" horiz-adv-x="596"
d="M434 151h-272l-47 -151h-98l238 700h86l238 -700h-98zM410 226l-112 359l-112 -359h224zM435 973h71l-63 -103h-55zM269 897h58l112 -143h-74l-67 88l-67 -88h-74z" />
    <glyph glyph-name="uni1EA5" unicode="&#x1ea5;" horiz-adv-x="514"
d="M87 33q-47 43 -47 111q0 75 56.5 116t160.5 41h103v26q0 56 -29.5 85.5t-85.5 29.5q-45 0 -82.5 -18.5t-62.5 -53.5l-43 52q34 43 83 65.5t109 22.5q94 0 145 -46t51 -132v-235q0 -39 12 -97h-74q-9 23 -13 70h-2q-28 -39 -69 -59.5t-91 -20.5q-74 0 -121 43zM291 71.5
q32 14.5 50.5 39.5t18.5 55v74h-106q-63 0 -97 -25t-34 -71q0 -40 26.5 -63.5t71.5 -23.5q38 0 70 14.5zM391 773h71l-63 -103h-55zM225 697h58l112 -143h-74l-67 88l-67 -88h-74z" />
    <glyph glyph-name="uni1EA6" unicode="&#x1ea6;" horiz-adv-x="596"
d="M434 151h-272l-47 -151h-98l238 700h86l238 -700h-98zM410 226l-112 359l-112 -359h224zM358 973h71l47 -103h-55zM269 897h58l112 -143h-74l-67 88l-67 -88h-74z" />
    <glyph glyph-name="uni1EA7" unicode="&#x1ea7;" horiz-adv-x="514"
d="M87 33q-47 43 -47 111q0 75 56.5 116t160.5 41h103v26q0 56 -29.5 85.5t-85.5 29.5q-45 0 -82.5 -18.5t-62.5 -53.5l-43 52q34 43 83 65.5t109 22.5q94 0 145 -46t51 -132v-235q0 -39 12 -97h-74q-9 23 -13 70h-2q-28 -39 -69 -59.5t-91 -20.5q-74 0 -121 43zM291 71.5
q32 14.5 50.5 39.5t18.5 55v74h-106q-63 0 -97 -25t-34 -71q0 -40 26.5 -63.5t71.5 -23.5q38 0 70 14.5zM314 773h71l47 -103h-55zM225 697h58l112 -143h-74l-67 88l-67 -88h-74z" />
    <glyph glyph-name="uni1EA8" unicode="&#x1ea8;" horiz-adv-x="596"
d="M434 151h-272l-47 -151h-98l238 700h86l238 -700h-98zM410 226l-112 359l-112 -359h224zM426 897.5q9 12.5 26 26.5q13 9 19.5 17t6.5 20q0 11 -8.5 18t-23.5 7t-28.5 -7.5t-22.5 -22.5l-30 27q12 20 35 32.5t51 12.5q34 0 54.5 -17t20.5 -48q0 -19 -8 -30.5t-25 -26.5
q-14 -11 -21 -20.5t-7 -22.5h-48q0 22 9 34.5zM269 897h58l112 -143h-74l-67 88l-67 -88h-74z" />
    <glyph glyph-name="uni1EA9" unicode="&#x1ea9;" horiz-adv-x="514"
d="M87 33q-47 43 -47 111q0 75 56.5 116t160.5 41h103v26q0 56 -29.5 85.5t-85.5 29.5q-45 0 -82.5 -18.5t-62.5 -53.5l-43 52q34 43 83 65.5t109 22.5q94 0 145 -46t51 -132v-235q0 -39 12 -97h-74q-9 23 -13 70h-2q-28 -39 -69 -59.5t-91 -20.5q-74 0 -121 43zM291 71.5
q32 14.5 50.5 39.5t18.5 55v74h-106q-63 0 -97 -25t-34 -71q0 -40 26.5 -63.5t71.5 -23.5q38 0 70 14.5zM382 697.5q9 12.5 26 26.5q13 9 19.5 17t6.5 20q0 11 -8.5 18t-23.5 7t-28.5 -7.5t-22.5 -22.5l-30 27q12 20 35 32.5t51 12.5q34 0 54.5 -17t20.5 -48q0 -19 -8 -30.5
t-25 -26.5q-14 -11 -21 -20.5t-7 -22.5h-48q0 22 9 34.5zM225 697h58l112 -143h-74l-67 88l-67 -88h-74z" />
    <glyph glyph-name="uni1EAA" unicode="&#x1eaa;" horiz-adv-x="596"
d="M434 151h-272l-47 -151h-98l238 700h86l238 -700h-98zM410 226l-112 359l-112 -359h224zM320.5 934.5q-13.5 6.5 -31.5 18.5q-17 11 -26.5 15.5t-20.5 4.5q-26 0 -37 -40h-41q7 40 28 63t54 23q15 0 29.5 -6t33.5 -17q18 -10 28.5 -14.5t20.5 -4.5q28 0 37 41h40
q-7 -42 -29.5 -66t-56.5 -24q-15 0 -28.5 6.5zM269 897h58l112 -143h-74l-67 88l-67 -88h-74z" />
    <glyph glyph-name="uni1EAB" unicode="&#x1eab;" horiz-adv-x="514"
d="M87 33q-47 43 -47 111q0 75 56.5 116t160.5 41h103v26q0 56 -29.5 85.5t-85.5 29.5q-45 0 -82.5 -18.5t-62.5 -53.5l-43 52q34 43 83 65.5t109 22.5q94 0 145 -46t51 -132v-235q0 -39 12 -97h-74q-9 23 -13 70h-2q-28 -39 -69 -59.5t-91 -20.5q-74 0 -121 43zM291 71.5
q32 14.5 50.5 39.5t18.5 55v74h-106q-63 0 -97 -25t-34 -71q0 -40 26.5 -63.5t71.5 -23.5q38 0 70 14.5zM276.5 734.5q-13.5 6.5 -31.5 18.5q-17 11 -26.5 15.5t-20.5 4.5q-26 0 -37 -40h-41q7 40 28 63t54 23q15 0 29.5 -6t33.5 -17q18 -10 28.5 -14.5t20.5 -4.5
q28 0 37 41h40q-7 -42 -29.5 -66t-56.5 -24q-15 0 -28.5 6.5zM225 697h58l112 -143h-74l-67 88l-67 -88h-74z" />
    <glyph glyph-name="uni1EAC" unicode="&#x1eac;" horiz-adv-x="596"
d="M434 151h-272l-47 -151h-98l238 700h86l238 -700h-98zM410 226l-112 359l-112 -359h224zM260.5 -159.5q-14.5 14.5 -14.5 36.5t14.5 36.5t37.5 14.5t37.5 -14.5t14.5 -36.5t-14.5 -36.5t-37.5 -14.5t-37.5 14.5zM269 897h58l112 -143h-74l-67 88l-67 -88h-74z" />
    <glyph glyph-name="uni1EAD" unicode="&#x1ead;" horiz-adv-x="514"
d="M87 33q-47 43 -47 111q0 75 56.5 116t160.5 41h103v26q0 56 -29.5 85.5t-85.5 29.5q-45 0 -82.5 -18.5t-62.5 -53.5l-43 52q34 43 83 65.5t109 22.5q94 0 145 -46t51 -132v-235q0 -39 12 -97h-74q-9 23 -13 70h-2q-28 -39 -69 -59.5t-91 -20.5q-74 0 -121 43zM291 71.5
q32 14.5 50.5 39.5t18.5 55v74h-106q-63 0 -97 -25t-34 -71q0 -40 26.5 -63.5t71.5 -23.5q38 0 70 14.5zM217.5 -159.5q-14.5 14.5 -14.5 36.5t14.5 36.5t37.5 14.5t37.5 -14.5t14.5 -36.5t-14.5 -36.5t-37.5 -14.5t-37.5 14.5zM225 697h58l112 -143h-74l-67 88l-67 -88h-74
z" />
    <glyph glyph-name="uni1EAE" unicode="&#x1eae;" horiz-adv-x="596"
d="M434 151h-272l-47 -151h-98l238 700h86l238 -700h-98zM410 226l-112 359l-112 -359h224zM313 1013h73l-66 -108h-58zM194.5 787.5q-38.5 33.5 -41.5 99.5h54q2 -35 25 -55.5t66 -20.5q40 0 64 19t27 57h54q-2 -62 -38.5 -97.5t-106.5 -35.5q-65 0 -103.5 33.5z" />
    <glyph glyph-name="uni1EAF" unicode="&#x1eaf;" horiz-adv-x="514"
d="M87 33q-47 43 -47 111q0 75 56.5 116t160.5 41h103v26q0 56 -29.5 85.5t-85.5 29.5q-45 0 -82.5 -18.5t-62.5 -53.5l-43 52q34 43 83 65.5t109 22.5q94 0 145 -46t51 -132v-235q0 -39 12 -97h-74q-9 23 -13 70h-2q-28 -39 -69 -59.5t-91 -20.5q-74 0 -121 43zM291 71.5
q32 14.5 50.5 39.5t18.5 55v74h-106q-63 0 -97 -25t-34 -71q0 -40 26.5 -63.5t71.5 -23.5q38 0 70 14.5zM269 813h73l-66 -108h-58zM150.5 587.5q-38.5 33.5 -41.5 99.5h54q2 -35 25 -55.5t66 -20.5q40 0 64 19t27 57h54q-2 -62 -38.5 -97.5t-106.5 -35.5q-65 0 -103.5 33.5
z" />
    <glyph glyph-name="uni1EB0" unicode="&#x1eb0;" horiz-adv-x="596"
d="M434 151h-272l-47 -151h-98l238 700h86l238 -700h-98zM410 226l-112 359l-112 -359h224zM202 1013h73l51 -108h-58zM194.5 787.5q-38.5 33.5 -41.5 99.5h54q2 -35 25 -55.5t66 -20.5q40 0 64 19t27 57h54q-2 -62 -38.5 -97.5t-106.5 -35.5q-65 0 -103.5 33.5z" />
    <glyph glyph-name="uni1EB1" unicode="&#x1eb1;" horiz-adv-x="514"
d="M87 33q-47 43 -47 111q0 75 56.5 116t160.5 41h103v26q0 56 -29.5 85.5t-85.5 29.5q-45 0 -82.5 -18.5t-62.5 -53.5l-43 52q34 43 83 65.5t109 22.5q94 0 145 -46t51 -132v-235q0 -39 12 -97h-74q-9 23 -13 70h-2q-28 -39 -69 -59.5t-91 -20.5q-74 0 -121 43zM291 71.5
q32 14.5 50.5 39.5t18.5 55v74h-106q-63 0 -97 -25t-34 -71q0 -40 26.5 -63.5t71.5 -23.5q38 0 70 14.5zM158 813h73l51 -108h-58zM150.5 587.5q-38.5 33.5 -41.5 99.5h54q2 -35 25 -55.5t66 -20.5q40 0 64 19t27 57h54q-2 -62 -38.5 -97.5t-106.5 -35.5q-65 0 -103.5 33.5z
" />
    <glyph glyph-name="uni1EB2" unicode="&#x1eb2;" horiz-adv-x="596"
d="M434 151h-272l-47 -151h-98l238 700h86l238 -700h-98zM410 226l-112 359l-112 -359h224zM281 931q9 12 27 26q14 11 20 18.5t6 19.5t-9 19t-25 7q-15 0 -28.5 -7.5t-22.5 -22.5l-28 25q12 21 34.5 33.5t49.5 12.5q33 0 54 -17.5t21 -47.5q0 -19 -8.5 -31.5t-24.5 -26.5
q-15 -13 -21.5 -21.5t-6.5 -21.5h-47q0 23 9 35zM194.5 787.5q-38.5 33.5 -41.5 99.5h54q2 -35 25 -55.5t66 -20.5q40 0 64 19t27 57h54q-2 -62 -38.5 -97.5t-106.5 -35.5q-65 0 -103.5 33.5z" />
    <glyph glyph-name="uni1EB3" unicode="&#x1eb3;" horiz-adv-x="514"
d="M87 33q-47 43 -47 111q0 75 56.5 116t160.5 41h103v26q0 56 -29.5 85.5t-85.5 29.5q-45 0 -82.5 -18.5t-62.5 -53.5l-43 52q34 43 83 65.5t109 22.5q94 0 145 -46t51 -132v-235q0 -39 12 -97h-74q-9 23 -13 70h-2q-28 -39 -69 -59.5t-91 -20.5q-74 0 -121 43zM291 71.5
q32 14.5 50.5 39.5t18.5 55v74h-106q-63 0 -97 -25t-34 -71q0 -40 26.5 -63.5t71.5 -23.5q38 0 70 14.5zM237 731q9 12 27 26q14 11 20 18.5t6 19.5t-9 19t-25 7q-15 0 -28.5 -7.5t-22.5 -22.5l-28 25q12 21 34.5 33.5t49.5 12.5q33 0 54 -17.5t21 -47.5q0 -19 -8.5 -31.5
t-24.5 -26.5q-15 -13 -21.5 -21.5t-6.5 -21.5h-47q0 23 9 35zM150.5 587.5q-38.5 33.5 -41.5 99.5h54q2 -35 25 -55.5t66 -20.5q40 0 64 19t27 57h54q-2 -62 -38.5 -97.5t-106.5 -35.5q-65 0 -103.5 33.5z" />
    <glyph glyph-name="uni1EB4" unicode="&#x1eb4;" horiz-adv-x="596"
d="M434 151h-272l-47 -151h-98l238 700h86l238 -700h-98zM410 226l-112 359l-112 -359h224zM323.5 932q-12.5 5 -22.5 11t-13 8q-29 20 -46 20q-26 0 -37 -39h-41q7 40 28 63t54 23q16 0 31 -6.5t33 -17.5q17 -10 27 -14.5t21 -4.5q28 0 37 42h40q-7 -42 -29.5 -66
t-55.5 -24q-14 0 -26.5 5zM194.5 787.5q-38.5 33.5 -41.5 99.5h54q2 -35 25 -55.5t66 -20.5q40 0 64 19t27 57h54q-2 -62 -38.5 -97.5t-106.5 -35.5q-65 0 -103.5 33.5z" />
    <glyph glyph-name="uni1EB5" unicode="&#x1eb5;" horiz-adv-x="514"
d="M87 33q-47 43 -47 111q0 75 56.5 116t160.5 41h103v26q0 56 -29.5 85.5t-85.5 29.5q-45 0 -82.5 -18.5t-62.5 -53.5l-43 52q34 43 83 65.5t109 22.5q94 0 145 -46t51 -132v-235q0 -39 12 -97h-74q-9 23 -13 70h-2q-28 -39 -69 -59.5t-91 -20.5q-74 0 -121 43zM291 71.5
q32 14.5 50.5 39.5t18.5 55v74h-106q-63 0 -97 -25t-34 -71q0 -40 26.5 -63.5t71.5 -23.5q38 0 70 14.5zM279.5 732q-12.5 5 -22.5 11t-13 8q-29 20 -46 20q-26 0 -37 -39h-41q7 40 28 63t54 23q16 0 31 -6.5t33 -17.5q17 -10 27 -14.5t21 -4.5q28 0 37 42h40
q-7 -42 -29.5 -66t-55.5 -24q-14 0 -26.5 5zM150.5 587.5q-38.5 33.5 -41.5 99.5h54q2 -35 25 -55.5t66 -20.5q40 0 64 19t27 57h54q-2 -62 -38.5 -97.5t-106.5 -35.5q-65 0 -103.5 33.5z" />
    <glyph glyph-name="uni1EB6" unicode="&#x1eb6;" horiz-adv-x="596"
d="M434 151h-272l-47 -151h-98l238 700h86l238 -700h-98zM410 226l-112 359l-112 -359h224zM260.5 -159.5q-14.5 14.5 -14.5 36.5t14.5 36.5t37.5 14.5t37.5 -14.5t14.5 -36.5t-14.5 -36.5t-37.5 -14.5t-37.5 14.5zM194.5 787.5q-38.5 33.5 -41.5 99.5h54q2 -35 25 -55.5
t66 -20.5q40 0 64 19t27 57h54q-2 -62 -38.5 -97.5t-106.5 -35.5q-65 0 -103.5 33.5z" />
    <glyph glyph-name="uni1EB7" unicode="&#x1eb7;" horiz-adv-x="514"
d="M87 33q-47 43 -47 111q0 75 56.5 116t160.5 41h103v26q0 56 -29.5 85.5t-85.5 29.5q-45 0 -82.5 -18.5t-62.5 -53.5l-43 52q34 43 83 65.5t109 22.5q94 0 145 -46t51 -132v-235q0 -39 12 -97h-74q-9 23 -13 70h-2q-28 -39 -69 -59.5t-91 -20.5q-74 0 -121 43zM291 71.5
q32 14.5 50.5 39.5t18.5 55v74h-106q-63 0 -97 -25t-34 -71q0 -40 26.5 -63.5t71.5 -23.5q38 0 70 14.5zM217.5 -159.5q-14.5 14.5 -14.5 36.5t14.5 36.5t37.5 14.5t37.5 -14.5t14.5 -36.5t-14.5 -36.5t-37.5 -14.5t-37.5 14.5zM150.5 587.5q-38.5 33.5 -41.5 99.5h54
q2 -35 25 -55.5t66 -20.5q40 0 64 19t27 57h54q-2 -62 -38.5 -97.5t-106.5 -35.5q-65 0 -103.5 33.5z" />
    <glyph glyph-name="uni1EB8" unicode="&#x1eb8;" horiz-adv-x="552"
d="M81 700h420v-76h-328v-218h293v-76h-293v-254h328v-76h-420v700zM257.5 -159.5q-14.5 14.5 -14.5 36.5t14.5 36.5t37.5 14.5t37.5 -14.5t14.5 -36.5t-14.5 -36.5t-37.5 -14.5t-37.5 14.5z" />
    <glyph glyph-name="uni1EB9" unicode="&#x1eb9;" horiz-adv-x="518"
d="M482 217h-360q7 -76 45 -115.5t105 -39.5q90 0 143 71l48 -46q-29 -46 -80.5 -71.5t-113.5 -25.5q-111 0 -172 68t-61 191q0 122 61.5 191.5t169.5 69.5q101 0 158 -68.5t57 -191.5v-33zM404 287q0 72 -37.5 113t-103.5 41q-62 0 -98.5 -42t-42.5 -119h282v7z
M230.5 -159.5q-14.5 14.5 -14.5 36.5t14.5 36.5t37.5 14.5t37.5 -14.5t14.5 -36.5t-14.5 -36.5t-37.5 -14.5t-37.5 14.5z" />
    <glyph glyph-name="uni1EBA" unicode="&#x1eba;" horiz-adv-x="552"
d="M81 700h420v-76h-328v-218h293v-76h-293v-254h328v-76h-420v700zM271.5 794.5q10.5 15.5 29.5 32.5q17 17 24.5 27.5t7.5 26.5q0 32 -41 32q-39 0 -63 -45l-38 34q15 29 43 45.5t65 16.5q45 0 71.5 -20.5t26.5 -59.5q0 -24 -10.5 -41t-30.5 -38q-16 -16 -23.5 -27
t-7.5 -24h-64q0 25 10.5 40.5z" />
    <glyph glyph-name="uni1EBB" unicode="&#x1ebb;" horiz-adv-x="518"
d="M482 217h-360q7 -76 45 -115.5t105 -39.5q90 0 143 71l48 -46q-29 -46 -80.5 -71.5t-113.5 -25.5q-111 0 -172 68t-61 191q0 122 61.5 191.5t169.5 69.5q101 0 158 -68.5t57 -191.5v-33zM404 287q0 72 -37.5 113t-103.5 41q-62 0 -98.5 -42t-42.5 -119h282v7z
M242.5 594.5q10.5 15.5 29.5 32.5q17 17 24.5 27.5t7.5 26.5q0 32 -41 32q-39 0 -63 -45l-38 34q15 29 43 45.5t65 16.5q45 0 71.5 -20.5t26.5 -59.5q0 -24 -10.5 -41t-30.5 -38q-16 -16 -23.5 -27t-7.5 -24h-64q0 25 10.5 40.5z" />
    <glyph glyph-name="uni1EBC" unicode="&#x1ebc;" horiz-adv-x="552"
d="M81 700h420v-76h-328v-218h293v-76h-293v-254h328v-76h-420v700zM171.5 827q22.5 28 58.5 28q18 0 32.5 -6t41.5 -21q31 -20 47 -20q14 0 21.5 12t9.5 39h52q-1 -48 -24 -76.5t-60 -28.5q-19 0 -36 7.5t-41 21.5q-29 18 -41 18q-13 0 -21.5 -12.5t-9.5 -34.5h-52
q0 45 22.5 73z" />
    <glyph glyph-name="uni1EBD" unicode="&#x1ebd;" horiz-adv-x="518"
d="M482 217h-360q7 -76 45 -115.5t105 -39.5q90 0 143 71l48 -46q-29 -46 -80.5 -71.5t-113.5 -25.5q-111 0 -172 68t-61 191q0 122 61.5 191.5t169.5 69.5q101 0 158 -68.5t57 -191.5v-33zM404 287q0 72 -37.5 113t-103.5 41q-62 0 -98.5 -42t-42.5 -119h282v7zM142.5 627
q22.5 28 58.5 28q18 0 32.5 -6t41.5 -21q31 -20 47 -20q14 0 21.5 12t9.5 39h52q-1 -48 -24 -76.5t-60 -28.5q-19 0 -36 7.5t-41 21.5q-29 18 -41 18q-13 0 -21.5 -12.5t-9.5 -34.5h-52q0 45 22.5 73z" />
    <glyph glyph-name="uni1EBE" unicode="&#x1ebe;" horiz-adv-x="552"
d="M81 700h420v-76h-328v-218h293v-76h-293v-254h328v-76h-420v700zM432 973h71l-63 -103h-55zM266 897h58l112 -143h-74l-67 88l-67 -88h-74z" />
    <glyph glyph-name="uni1EBF" unicode="&#x1ebf;" horiz-adv-x="518"
d="M482 217h-360q7 -76 45 -115.5t105 -39.5q90 0 143 71l48 -46q-29 -46 -80.5 -71.5t-113.5 -25.5q-111 0 -172 68t-61 191q0 122 61.5 191.5t169.5 69.5q101 0 158 -68.5t57 -191.5v-33zM404 287q0 72 -37.5 113t-103.5 41q-62 0 -98.5 -42t-42.5 -119h282v7zM403 773h71
l-63 -103h-55zM237 697h58l112 -143h-74l-67 88l-67 -88h-74z" />
    <glyph glyph-name="uni1EC0" unicode="&#x1ec0;" horiz-adv-x="552"
d="M81 700h420v-76h-328v-218h293v-76h-293v-254h328v-76h-420v700zM355 973h71l47 -103h-55zM266 897h58l112 -143h-74l-67 88l-67 -88h-74z" />
    <glyph glyph-name="uni1EC1" unicode="&#x1ec1;" horiz-adv-x="518"
d="M482 217h-360q7 -76 45 -115.5t105 -39.5q90 0 143 71l48 -46q-29 -46 -80.5 -71.5t-113.5 -25.5q-111 0 -172 68t-61 191q0 122 61.5 191.5t169.5 69.5q101 0 158 -68.5t57 -191.5v-33zM404 287q0 72 -37.5 113t-103.5 41q-62 0 -98.5 -42t-42.5 -119h282v7zM326 773h71
l47 -103h-55zM237 697h58l112 -143h-74l-67 88l-67 -88h-74z" />
    <glyph glyph-name="uni1EC2" unicode="&#x1ec2;" horiz-adv-x="552"
d="M81 700h420v-76h-328v-218h293v-76h-293v-254h328v-76h-420v700zM423 897.5q9 12.5 26 26.5q13 9 19.5 17t6.5 20q0 11 -8.5 18t-23.5 7t-28.5 -7.5t-22.5 -22.5l-30 27q12 20 35 32.5t51 12.5q34 0 54.5 -17t20.5 -48q0 -19 -8 -30.5t-25 -26.5q-14 -11 -21 -20.5
t-7 -22.5h-48q0 22 9 34.5zM266 897h58l112 -143h-74l-67 88l-67 -88h-74z" />
    <glyph glyph-name="uni1EC3" unicode="&#x1ec3;" horiz-adv-x="518"
d="M482 217h-360q7 -76 45 -115.5t105 -39.5q90 0 143 71l48 -46q-29 -46 -80.5 -71.5t-113.5 -25.5q-111 0 -172 68t-61 191q0 122 61.5 191.5t169.5 69.5q101 0 158 -68.5t57 -191.5v-33zM404 287q0 72 -37.5 113t-103.5 41q-62 0 -98.5 -42t-42.5 -119h282v7zM394 697.5
q9 12.5 26 26.5q13 9 19.5 17t6.5 20q0 11 -8.5 18t-23.5 7t-28.5 -7.5t-22.5 -22.5l-30 27q12 20 35 32.5t51 12.5q34 0 54.5 -17t20.5 -48q0 -19 -8 -30.5t-25 -26.5q-14 -11 -21 -20.5t-7 -22.5h-48q0 22 9 34.5zM237 697h58l112 -143h-74l-67 88l-67 -88h-74z" />
    <glyph glyph-name="uni1EC4" unicode="&#x1ec4;" horiz-adv-x="552"
d="M81 700h420v-76h-328v-218h293v-76h-293v-254h328v-76h-420v700zM317.5 934.5q-13.5 6.5 -31.5 18.5q-17 11 -26.5 15.5t-20.5 4.5q-26 0 -37 -40h-41q7 40 28 63t54 23q15 0 29.5 -6t33.5 -17q18 -10 28.5 -14.5t20.5 -4.5q28 0 37 41h40q-7 -42 -29.5 -66t-56.5 -24
q-15 0 -28.5 6.5zM266 897h58l112 -143h-74l-67 88l-67 -88h-74z" />
    <glyph glyph-name="uni1EC5" unicode="&#x1ec5;" horiz-adv-x="518"
d="M482 217h-360q7 -76 45 -115.5t105 -39.5q90 0 143 71l48 -46q-29 -46 -80.5 -71.5t-113.5 -25.5q-111 0 -172 68t-61 191q0 122 61.5 191.5t169.5 69.5q101 0 158 -68.5t57 -191.5v-33zM404 287q0 72 -37.5 113t-103.5 41q-62 0 -98.5 -42t-42.5 -119h282v7z
M288.5 734.5q-13.5 6.5 -31.5 18.5q-17 11 -26.5 15.5t-20.5 4.5q-26 0 -37 -40h-41q7 40 28 63t54 23q15 0 29.5 -6t33.5 -17q18 -10 28.5 -14.5t20.5 -4.5q28 0 37 41h40q-7 -42 -29.5 -66t-56.5 -24q-15 0 -28.5 6.5zM237 697h58l112 -143h-74l-67 88l-67 -88h-74z" />
    <glyph glyph-name="uni1EC6" unicode="&#x1ec6;" horiz-adv-x="552"
d="M81 700h420v-76h-328v-218h293v-76h-293v-254h328v-76h-420v700zM257.5 -159.5q-14.5 14.5 -14.5 36.5t14.5 36.5t37.5 14.5t37.5 -14.5t14.5 -36.5t-14.5 -36.5t-37.5 -14.5t-37.5 14.5zM266 897h58l112 -143h-74l-67 88l-67 -88h-74z" />
    <glyph glyph-name="uni1EC7" unicode="&#x1ec7;" horiz-adv-x="518"
d="M482 217h-360q7 -76 45 -115.5t105 -39.5q90 0 143 71l48 -46q-29 -46 -80.5 -71.5t-113.5 -25.5q-111 0 -172 68t-61 191q0 122 61.5 191.5t169.5 69.5q101 0 158 -68.5t57 -191.5v-33zM404 287q0 72 -37.5 113t-103.5 41q-62 0 -98.5 -42t-42.5 -119h282v7z
M230.5 -159.5q-14.5 14.5 -14.5 36.5t14.5 36.5t37.5 14.5t37.5 -14.5t14.5 -36.5t-14.5 -36.5t-37.5 -14.5t-37.5 14.5zM237 697h58l112 -143h-74l-67 88l-67 -88h-74z" />
    <glyph glyph-name="uni1EC8" unicode="&#x1ec8;" horiz-adv-x="292"
d="M100 700h92v-700h-92v700zM123.5 794.5q10.5 15.5 29.5 32.5q17 17 24.5 27.5t7.5 26.5q0 32 -41 32q-39 0 -63 -45l-38 34q15 29 43 45.5t65 16.5q45 0 71.5 -20.5t26.5 -59.5q0 -24 -10.5 -41t-30.5 -38q-16 -16 -23.5 -27t-7.5 -24h-64q0 25 10.5 40.5z" />
    <glyph glyph-name="uni1EC9" unicode="&#x1ec9;" horiz-adv-x="253"
d="M84 500h85v-500h-85v500zM102.5 594.5q10.5 15.5 29.5 32.5q17 17 24.5 27.5t7.5 26.5q0 32 -41 32q-39 0 -63 -45l-38 34q15 29 43 45.5t65 16.5q45 0 71.5 -20.5t26.5 -59.5q0 -24 -10.5 -41t-30.5 -38q-16 -16 -23.5 -27t-7.5 -24h-64q0 25 10.5 40.5z" />
    <glyph glyph-name="uni1ECA" unicode="&#x1eca;" horiz-adv-x="292"
d="M100 700h92v-700h-92v700zM109.5 -159.5q-14.5 14.5 -14.5 36.5t14.5 36.5t37.5 14.5t37.5 -14.5t14.5 -36.5t-14.5 -36.5t-37.5 -14.5t-37.5 14.5z" />
    <glyph glyph-name="uni1ECB" unicode="&#x1ecb;" horiz-adv-x="245"
d="M78 602q-16 15 -16 41t16 41.5t44 15.5t44.5 -15.5t16.5 -41.5t-16.5 -41t-44.5 -15t-44 15zM80 500h85v-500h-85v500zM84.5 -159.5q-14.5 14.5 -14.5 36.5t14.5 36.5t37.5 14.5t37.5 -14.5t14.5 -36.5t-14.5 -36.5t-37.5 -14.5t-37.5 14.5z" />
    <glyph glyph-name="uni1ECC" unicode="&#x1ecc;" horiz-adv-x="661"
d="M173 33.5q-67 43.5 -103 125t-36 191.5t36 191.5t103 125t158 43.5t157.5 -43.5t102.5 -125t36 -191.5t-36 -191.5t-102.5 -125t-157.5 -43.5t-158 43.5zM439.5 99q46.5 35 71 99.5t24.5 151.5t-24.5 151.5t-71 99.5t-108.5 35q-63 0 -109 -35t-71 -99.5t-25 -151.5
t25 -151.5t71 -99.5t109 -35q62 0 108.5 35zM293.5 -159.5q-14.5 14.5 -14.5 36.5t14.5 36.5t37.5 14.5t37.5 -14.5t14.5 -36.5t-14.5 -36.5t-37.5 -14.5t-37.5 14.5z" />
    <glyph glyph-name="uni1ECD" unicode="&#x1ecd;" horiz-adv-x="557"
d="M149.5 21.5q-54.5 31.5 -84 90.5t-29.5 138t29.5 138t84 90.5t128.5 31.5q112 0 177.5 -70t65.5 -190t-65.5 -190t-177.5 -70q-74 0 -128.5 31.5zM394 107q42 52 42 143t-42 143t-116 52q-73 0 -115 -52t-42 -143t42 -143t115 -52q74 0 116 52zM240.5 -159.5
q-14.5 14.5 -14.5 36.5t14.5 36.5t37.5 14.5t37.5 -14.5t14.5 -36.5t-14.5 -36.5t-37.5 -14.5t-37.5 14.5z" />
    <glyph glyph-name="uni1ECE" unicode="&#x1ece;" horiz-adv-x="661"
d="M173 33.5q-67 43.5 -103 125t-36 191.5t36 191.5t103 125t158 43.5t157.5 -43.5t102.5 -125t36 -191.5t-36 -191.5t-102.5 -125t-157.5 -43.5t-158 43.5zM439.5 99q46.5 35 71 99.5t24.5 151.5t-24.5 151.5t-71 99.5t-108.5 35q-63 0 -109 -35t-71 -99.5t-25 -151.5
t25 -151.5t71 -99.5t109 -35q62 0 108.5 35zM307.5 794.5q10.5 15.5 29.5 32.5q17 17 24.5 27.5t7.5 26.5q0 32 -41 32q-39 0 -63 -45l-38 34q15 29 43 45.5t65 16.5q45 0 71.5 -20.5t26.5 -59.5q0 -24 -10.5 -41t-30.5 -38q-16 -16 -23.5 -27t-7.5 -24h-64q0 25 10.5 40.5z
" />
    <glyph glyph-name="uni1ECF" unicode="&#x1ecf;" horiz-adv-x="557"
d="M149.5 21.5q-54.5 31.5 -84 90.5t-29.5 138t29.5 138t84 90.5t128.5 31.5q112 0 177.5 -70t65.5 -190t-65.5 -190t-177.5 -70q-74 0 -128.5 31.5zM394 107q42 52 42 143t-42 143t-116 52q-73 0 -115 -52t-42 -143t42 -143t115 -52q74 0 116 52zM254.5 594.5
q10.5 15.5 29.5 32.5q17 17 24.5 27.5t7.5 26.5q0 32 -41 32q-39 0 -63 -45l-38 34q15 29 43 45.5t65 16.5q45 0 71.5 -20.5t26.5 -59.5q0 -24 -10.5 -41t-30.5 -38q-16 -16 -23.5 -27t-7.5 -24h-64q0 25 10.5 40.5z" />
    <glyph glyph-name="uni1ED0" unicode="&#x1ed0;" horiz-adv-x="661"
d="M173 33.5q-67 43.5 -103 125t-36 191.5t36 191.5t103 125t158 43.5t157.5 -43.5t102.5 -125t36 -191.5t-36 -191.5t-102.5 -125t-157.5 -43.5t-158 43.5zM439.5 99q46.5 35 71 99.5t24.5 151.5t-24.5 151.5t-71 99.5t-108.5 35q-63 0 -109 -35t-71 -99.5t-25 -151.5
t25 -151.5t71 -99.5t109 -35q62 0 108.5 35zM468 973h71l-63 -103h-55zM302 897h58l112 -143h-74l-67 88l-67 -88h-74z" />
    <glyph glyph-name="uni1ED1" unicode="&#x1ed1;" horiz-adv-x="557"
d="M149.5 21.5q-54.5 31.5 -84 90.5t-29.5 138t29.5 138t84 90.5t128.5 31.5q112 0 177.5 -70t65.5 -190t-65.5 -190t-177.5 -70q-74 0 -128.5 31.5zM394 107q42 52 42 143t-42 143t-116 52q-73 0 -115 -52t-42 -143t42 -143t115 -52q74 0 116 52zM415 773h71l-63 -103h-55z
M249 697h58l112 -143h-74l-67 88l-67 -88h-74z" />
    <glyph glyph-name="uni1ED2" unicode="&#x1ed2;" horiz-adv-x="661"
d="M173 33.5q-67 43.5 -103 125t-36 191.5t36 191.5t103 125t158 43.5t157.5 -43.5t102.5 -125t36 -191.5t-36 -191.5t-102.5 -125t-157.5 -43.5t-158 43.5zM439.5 99q46.5 35 71 99.5t24.5 151.5t-24.5 151.5t-71 99.5t-108.5 35q-63 0 -109 -35t-71 -99.5t-25 -151.5
t25 -151.5t71 -99.5t109 -35q62 0 108.5 35zM391 973h71l47 -103h-55zM302 897h58l112 -143h-74l-67 88l-67 -88h-74z" />
    <glyph glyph-name="uni1ED3" unicode="&#x1ed3;" horiz-adv-x="557"
d="M149.5 21.5q-54.5 31.5 -84 90.5t-29.5 138t29.5 138t84 90.5t128.5 31.5q112 0 177.5 -70t65.5 -190t-65.5 -190t-177.5 -70q-74 0 -128.5 31.5zM394 107q42 52 42 143t-42 143t-116 52q-73 0 -115 -52t-42 -143t42 -143t115 -52q74 0 116 52zM338 773h71l47 -103h-55z
M249 697h58l112 -143h-74l-67 88l-67 -88h-74z" />
    <glyph glyph-name="uni1ED4" unicode="&#x1ed4;" horiz-adv-x="661"
d="M173 33.5q-67 43.5 -103 125t-36 191.5t36 191.5t103 125t158 43.5t157.5 -43.5t102.5 -125t36 -191.5t-36 -191.5t-102.5 -125t-157.5 -43.5t-158 43.5zM439.5 99q46.5 35 71 99.5t24.5 151.5t-24.5 151.5t-71 99.5t-108.5 35q-63 0 -109 -35t-71 -99.5t-25 -151.5
t25 -151.5t71 -99.5t109 -35q62 0 108.5 35zM459 897.5q9 12.5 26 26.5q13 9 19.5 17t6.5 20q0 11 -8.5 18t-23.5 7t-28.5 -7.5t-22.5 -22.5l-30 27q12 20 35 32.5t51 12.5q34 0 54.5 -17t20.5 -48q0 -19 -8 -30.5t-25 -26.5q-14 -11 -21 -20.5t-7 -22.5h-48q0 22 9 34.5z
M302 897h58l112 -143h-74l-67 88l-67 -88h-74z" />
    </font>
</defs>
</svg>
